Results 1 to 1 of 1
  1. #1
    Banned www.desirulez.net
    Join Date
    Sep 2011
    Posts
    239

    T

    Default Spiderman Punjabi

    Follow us on Social Media







    Spiderman Punjabi
    Code:
    General
    Complete name                    : Spider Man in Punjabi by Azi.mp4
    Format                           : MPEG-4
    Format profile                   : Base Media
    Codec ID                         : isom
    File size                        : 447 MiB
    Duration                         : 1h 35mn
    Overall bit rate                 : 657 Kbps
    Writing application              : ZJMEDIA MP4/3GP/MOV Encoder v1.0
    Comment                          : QuickTime 6.0 or greater
    
    Video
    ID                               : 1
    Format                           : MPEG-4 Visual
    Format profile                   : [email protected]
    Format settings, BVOP            : No
    Format settings, QPel            : No
    Format settings, GMC             : No warppoints
    Format settings, Matrix          : Default (H.263)
    Codec ID                         : 20
    Duration                         : 1h 35mn
    Bit rate mode                    : Constant
    Bit rate                         : 512 Kbps
    Width                            : 592 pixels
    Height                           : 304 pixels
    Display aspect ratio             : 1.947
    Frame rate mode                  : Constant
    Frame rate                       : 29.970 fps
    Color space                      : YUV
    Chroma subsampling               : 4:2:0
    Bit depth                        : 8 bits
    Scan type                        : Progressive
    Compression mode                 : Lossy
    Bits/(Pixel*Frame)               : 0.095
    Stream size                      : 358 MiB (80%)
    Writing library                  : ZJMedia MPEG Encoder
    Language                         : English
    
    Audio
    ID                               : 2
    Format                           : AAC
    Format/Info                      : Advanced Audio Codec
    Format profile                   : LC
    Codec ID                         : 40
    Duration                         : 1h 35mn
    Bit rate mode                    : Constant
    Bit rate                         : 128 Kbps
    Nominal bit rate                 : 64.0 Kbps
    Channel(s)                       : 2 channels
    Channel positions                : Front: L R
    Sampling rate                    : 24.0 KHz
    Compression mode                 : Lossy
    Stream size                      : 87.1 MiB (19%)










    Code:
    http://www.megaupload.com/?d=GWEWI9W5
    if not access to download please click this link to watch online.

    Code:
    http://www.megavideo.com/?d=GWEWI9W5

 

 

Posting Permissions

  • You may not post new threads
  • You may not post replies
  • You may not post attachments
  • You may not edit your posts
  •