Results 1 to 2 of 2
  1. #1

    Wink Waqt Se Din - Waqt - Xvid - Ac3 - Untouched Audio - 6 Channels

    Follow us on Social Media










    Waqt Se Din - Waqt - Xvid - Ac3 - Untouched Audio - 6 Channels





    Code:
    Format                           : AVI
    Format/Info                      : Audio Video Interleave
    File size                        : 73.6 MiB
    Duration                         : 4mn 5s
    Overall bit rate                 : 2 519 Kbps
    Writing application              : VirtualDubMod 1.5.10.2 (build 2540/release)
    Writing library                  : VirtualDubMod build 2540/release
    
    Video
    Format                           : MPEG-4 Visual
    Format profile                   : Streaming [email protected]
    Format settings, BVOP            : Yes
    Format settings, QPel            : No
    Format settings, GMC             : No warppoints
    Format settings, Matrix          : Default (H.263)
    Muxing mode                      : Packed bitstream
    Codec ID                         : XVID
    Codec ID/Hint                    : XviD
    Duration                         : 4mn 5s
    Bit rate                         : 2 125 Kbps
    Width                            : 640 pixels
    Height                           : 416 pixels
    Display aspect ratio             : 1.538
    Frame rate                       : 23.976 fps
    Resolution                       : 24 bits
    Colorimetry                      : 4:2:0
    Scan type                        : Progressive
    Bits/(Pixel*Frame)               : 0.333
    Stream size                      : 62.1 MiB (84%)
    Writing library                  : XviD 1.2.1 (UTC 2008-12-04)
    
    Audio
    Format                           : AC-3
    Format/Info                      : Audio Coding 3
    Codec ID                         : 2000
    Duration                         : 4mn 5s
    Bit rate mode                    : Constant
    Bit rate                         : 384 Kbps
    Channel(s)                       : 6 channels
    Channel positions                : Front: L C R, Surround: L R, LFE
    Sampling rate                    : 48.0 KHz
    Stream size                      : 11.2 MiB (15%)
    Alignment                        : Split accross interleaves
    Interleave, duration             : 42 ms (1.00 video frame)
    Interleave, preload duration     : 500 ms
















    Rapidshare:
    Code:
    http://rapidshare.com/files/246517815/Waqt_Ke_Din_-_Waqt_.By.TuHiN.TeaM.SparkaR.avi


    Uploaded.to:
    Code:
    http://ul.to/iiagr7/Waqt_Ke_Din_-_Waqt_.By.TuHiN.TeaM.SparkaR.avi


    Filefactory:
    Code:
    http://www.filefactory.com/file/ag7565g/n/Waqt_Ke_Din_-_Waqt_By_TuHiN_TeaM_SparkaR_avi


    Hotfile(Free Resume Capable):
    Code:
    http://hotfile.com/dl/7249496/eace9a3/Waqt_Ke_Din_-_Waqt_.By.TuHiN.TeaM.SparkaR.avi.html


    Ifile.it(Free Resume Capable):
    Code:
    http://ifile.it/8orehwx/waqt_ke_din_-_waqt_.by.tuhin.team.sparkar.avi



    Usaupload:
    Code:
    http://www.usaupload.net/d/4ygzavv2nsb


    Depositfiles:
    Code:
    http://depositfiles.com/files/58en9q9iy



    Filezzz(Free Resume Capable):

    Code:
    http://www.filezzz.com/download/122727/Waqt%20Ke%20Din%20-%20Waqt%20.By.TuHiN.TeaM.SparkaR.avi.html



    Quickupload.net
    Code:
    http://quickupload.net/sblchcw05u7p/Waqt_Ke_Din_-_Waqt_.By.TuHiN.TeaM.SparkaR.avi.html

  2. #2
    Hot Member www.desirulez.net
    Join Date
    Apr 2009
    Location
    London
    Posts
    1,924

    T

    Default

    thanks for sharing
    Make A Reply... Its A Gift! ~Give A Rep... Its A Grace! ~Get A Rep... Its A Virtue!
    ~But Try Not To Be A Leecher ... Its An HONOR...



 

 

Posting Permissions

  • You may not post new threads
  • You may not post replies
  • You may not post attachments
  • You may not edit your posts
  •