Results 1 to 1 of 1
  1. #1

    Wink Sweet Memories [Music Videos] ~ DVD RiP ~ Xvid ~ Ac3 ~

    Follow us on Social Media







    Sweet Memories [Music Videos] ~ DVD RiP ~ Xvid ~ Ac3 ~







    Code:
    Format                           : AVI
    Format/Info                      : Audio Video Interleave
    Format profile                   : OpenDML
    File size                        : 1.63 GiB
    Duration                         : 2h 1mn
    Overall bit rate                 : 1 917 Kbps
    
    
    Video
    Format                           : MPEG-4 Visual
    Format profile                   : Streaming [email protected]
    Format settings, BVOP            : Yes
    Format settings, QPel            : No
    Format settings, GMC             : No warppoints
    Format settings, Matrix          : Default
    Codec ID                         : XVID
    Codec ID/Hint                    : XviD
    Duration                         : 2h 1mn
    Bit rate                         : 1 463 Kbps
    Width                            : 720 pixels
    Height                           : 304 pixels
    Display aspect ratio             : 2.35
    Frame rate                       : 29.970 fps
    Resolution                       : 24 bits
    Colorimetry                      : 4:2:0
    Scan type                        : Progressive
    Bits/(Pixel*Frame)               : 0.223
    Stream size                      : 1.24 GiB (76%)
    
    
    Audio
    Format                           : AC-3
    Format/Info                      : Audio Coding 3
    Codec ID                         : 2000
    Duration                         : 2h 1mn
    Bit rate mode                    : Constant
    Bit rate                         : 448 Kbps
    Channel(s)                       : 6 channels
    Channel positions                : Front: L C R, Surround: L R, LFE
    Sampling rate                    : 48.0 KHz
    Stream size                      : 390 MiB (23%)
    Alignment                        : Aligned on interleaves
    Interleave, duration             : 64 ms (1.92 video frames)
    Interleave, preload duration     : 192 ms
    
    source:Sweet Memories ~ Orignal Music Album ~ Untouched Dvd5 ~ Smartran63 ~ DUS
    
    
    
    Always Credits Goes To Original Ripper





































    Code:
    http://rapidshare.com/files/204285218/TS.Sweet_Memories.Music_Video.By.Tuhin.Sparkar.avi.001
    http://rapidshare.com/files/204285314/TS.Sweet_Memories.Music_Video.By.Tuhin.Sparkar.avi.002
    http://rapidshare.com/files/204285408/TS.Sweet_Memories.Music_Video.By.Tuhin.Sparkar.avi.003
    http://rapidshare.com/files/204285709/TS.Sweet_Memories.Music_Video.By.Tuhin.Sparkar.avi.004
    http://rapidshare.com/files/204285824/TS.Sweet_Memories.Music_Video.By.Tuhin.Sparkar.avi.005
    http://rapidshare.com/files/204285955/TS.Sweet_Memories.Music_Video.By.Tuhin.Sparkar.avi.006
    http://rapidshare.com/files/204286482/TS.Sweet_Memories.Music_Video.By.Tuhin.Sparkar.avi.007
    http://rapidshare.com/files/204286627/TS.Sweet_Memories.Music_Video.By.Tuhin.Sparkar.avi.008
    http://rapidshare.com/files/204286612/TS.Sweet_Memories.Music_Video.By.Tuhin.Sparkar.avi.009

    Use "Hjsplit" To Join This File


 

 

Posting Permissions

  • You may not post new threads
  • You may not post replies
  • You may not post attachments
  • You may not edit your posts
  •