Results 1 to 1 of 1
  1. #1
    dR Rockers www.desirulez.net
    Join Date
    Aug 2011
    Posts
    5,859

    T

    Cool Ooh La La 52 Nonstop Remix ( 2012 ) DvD - 2CD - Rip - Xvid - 6 channels { ExD XMR }

    Follow us on Social Media











    Ooh La La 52 Nonstop Remix










    Ripper : Rahul Source : Kartik Complete name : Ooh La La 52 Nonstop Remix Format : AVI Format/Info : Audio Video Interleave File size : 1.37 GiB Duration : 1h 17mn Overall bit rate : 2 527 Kbps Video ID : 0 Format : MPEG-4 Visual Format profile : Advanced [email protected] Format settings, BVOP : 2 Format settings, QPel : Yes Format settings, GMC : No warppoints Format settings, Matrix : Default (MPEG) Codec ID : XVID Codec ID/Hint : XviD Duration : 1h 17mn Bit rate : 2 072 Kbps Width : 640 pixels Height : 288 pixels Display aspect ratio : 2.222 Frame rate : 23.976 fps Color space : YUV Chroma subsampling : 4:2:0 Bit depth : 8 bits Scan type : Progressive Compression mode : Lossy Bits/(Pixel*Frame) : 0.469 Stream size : 1.12 GiB (82%) Writing library : XviD 1.2.1 (UTC 2008-12-04) Audio ID : 1 Format : AC-3 Format/Info : Audio Coding 3 Mode extension : CM (complete main) Codec ID : 2000 Duration : 1h 17mn Bit rate mode : Constant Bit rate : 448 Kbps Channel(s) : 6 channels Channel positions : Front: L C R, Side: L R, LFE Sampling rate : 48.0 KHz Bit depth : 16 bits Compression mode : Lossy Stream size : 248 MiB (18%) Alignment : Aligned on interleaves Interleave, duration : 64 ms (1.54 video frames) Interleave, preload duration : 192 ms Title : My rip T80 3_2ch 448Kbps DELAY 0ms


















    SINGLE LINK

    Code:
    http://extabit.com/file/2dvkniayofiam/Ooh La La  52 Nonstop Remix ( 2012 ) DvD - 2CD - Rip - Xvid - 6 channels { ExD XMR }.avi
    Code:
    http://ul.to/k2t21eeq/Ooh La La  52 Nonstop Remix ( 2012 ) DvD - 2CD - Rip - Xvid - 6 channels { ExD XMR }.avi

    450MB LINKS


    Code:
    http://extabit.com/file/2dvkniayofuym/Ooh La La  52 Nonstop Remix ( 2012 ) DvD - 2CD - Rip - Xvid - 6 channels { ExD XMR }.avi.001
    http://extabit.com/file/2dvkniayofuvi/Ooh La La  52 Nonstop Remix ( 2012 ) DvD - 2CD - Rip - Xvid - 6 channels { ExD XMR }.avi.002
    http://extabit.com/file/2dvkniayofibi/Ooh La La  52 Nonstop Remix ( 2012 ) DvD - 2CD - Rip - Xvid - 6 channels { ExD XMR }.avi.003
    http://extabit.com/file/2dvkniayofi8e/Ooh La La  52 Nonstop Remix ( 2012 ) DvD - 2CD - Rip - Xvid - 6 channels { ExD XMR }.avi.004
    
    
    
    http://ul.to/l0j16wak/Ooh La La  52 Nonstop Remix ( 2012 ) DvD - 2CD - Rip - Xvid - 6 channels { ExD XMR }.avi.001
    http://ul.to/nim3nkyq/Ooh La La  52 Nonstop Remix ( 2012 ) DvD - 2CD - Rip - Xvid - 6 channels { ExD XMR }.avi.002
    http://ul.to/uc9tyzgu/Ooh La La  52 Nonstop Remix ( 2012 ) DvD - 2CD - Rip - Xvid - 6 channels { ExD XMR }.avi.003
    http://ul.to/9wxfizbd/Ooh La La  52 Nonstop Remix ( 2012 ) DvD - 2CD - Rip - Xvid - 6 channels { ExD XMR }.avi.004

 

 

Posting Permissions

  • You may not post new threads
  • You may not post replies
  • You may not post attachments
  • You may not edit your posts
  •