Results 1 to 1 of 1
  1. #1

    Wink Lage Raho Munna Bhai [2006] - Pal Pal Har Pal - UpScaled[1280 x 544] - AC3 5.1

    Follow us on Social Media







    Lage Raho Munna Bhai [2006] - Pal Pal Har Pal - UpScaled[1280 x 544] - AC3 5.1





    Code:
    General :
    Format : AVI
    Format/Info : Audio Video Interleave
    File size : 56.8 MiB
    Duration : 2mn 0s
    Overall bit rate : 3969 Kbps
    Writing library : VirtualDubMod 1.5.10.2 (build 2540/release)
    Ripper : MkZ(MySelf)
    Source : DVD9
    
    Video :
    Format : MPEG-4 Visual
    Format profile : Streaming [email protected]
    Format settings, BVOP : Yes
    Format settings, QPel : No
    Format settings, GMC : No warppoints
    Format settings, Matrix : Custom
    Codec ID : XVID
    Codec ID/Hint : XviD
    Duration : 2mn 0s
    Bit rate : 3511 Kbps
    Width : 1280 pixels
    Height : 544 pixels
    Display aspect ratio : 2.35
    Frame rate : 25.000 fps
    Resolution : 24 bits
    Colorimetry : 4:2:0
    Scan type : Progressive
    Bits/(Pixel*Frame) : 0.202
    Stream size : 50.2 MiB (88%)
    
    Audio:
    Format : AC-3
    Format/Info : Audio Coding 3
    Codec ID : 2000
    Duration : 1mn 59s
    Bit rate mode : Constant
    Bit rate : 448 Kbps
    Channel(s) : 6 channels
    Channel positions : Front: L C R, Surround: L R, LFE
    Sampling rate : 48.0 KHz
    Video delay : 17ms
    Stream size : 6.41 MiB (11%)
    Alignment : Split accross interleaves
    Interleave, duration : 40 ms (1.00 video frame)
    Interleave, preload duration : 500 ms



















    Rapidshare:
    Code:
    http://rapidshare.com/files/213826465/Pal_Pal_Har_Pal_-_UpScaled.By.tuhin.Team.Sparkar.avi

    Uploaded.to:
    Code:
    http://uploaded.to/file/17zaak/Pal_Pal_Har_Pal_-_UpScaled.By.tuhin.Team.Sparkar.avi

 

 

Posting Permissions

  • You may not post new threads
  • You may not post replies
  • You may not post attachments
  • You may not edit your posts
  •