Results 1 to 1 of 1
  1. #1
    dR Rockers www.desirulez.net
    Join Date
    Jul 2009
    Posts
    551

    T

    Default Enrique Iglesias feat. Lil Wayne - Push [2008][Very HQ DVDRip x264][RS+MU]

    Follow us on Social Media







    Enrique Iglesias feat. Lil Wayne - Push [2008]



    CAPS











    Code:
    Video
    Format                           : MPEG-4 Visual
    Format profile                   : [email protected]
    Format settings, BVOP            : No
    Format settings, QPel            : No
    Format settings, GMC             : No warppoints
    Format settings, Matrix          : Default
    Codec ID                         : XVID
    Codec ID/Hint                    : XviD
    Duration                         : 3mn 51s
    Bit rate                         : 1 977 Kbps
    Width                            : 624 pixels
    Height                           : 448 pixels
    Display aspect ratio             : 1.393
    Frame rate                       : 23.976 fps
    Resolution                       : 24 bits
    Colorimetry                      : 4:2:0
    Scan type                        : Progressive
    Bits/(Pixel*Frame)               : 0.295
    Stream size                      : 54.5 MiB (91%)
    Writing library                  : Lavc51.21.0
    
    Audio
    Format                           : MPEG Audio
    Format version                   : Version 1
    Format profile                   : Layer 3
    Codec ID                         : 55
    Codec ID/Hint                    : MP3
    Duration                         : 3mn 51s
    Bit rate mode                    : Constant
    Bit rate                         : 192 Kbps
    Channel(s)                       : 2 channels
    Sampling rate                    : 48.0 KHz
    Resolution                       : 16 bits
    Stream size                      : 5.29 MiB (9%)
    Alignment                        : Aligned on interleaves
    Interleave, duration             : 24 ms (0.58 video frame)
    Interleave, preload duration     : 504 ms
    Writing library                  : LAME3.96.1
    ..:: DOWNLOAD ::..
    RAPIDSHARE
    MEGAUPLOAD
    [/quote]
    <

 

 

Posting Permissions

  • You may not post new threads
  • You may not post replies
  • You may not post attachments
  • You may not edit your posts
  •