Results 1 to 2 of 2
  1. #1
    Super Member www.desirulez.net
    Join Date
    May 2011
    Posts
    300

    T

    Lightbulb Delhi Belly (2011) DVDRip - UpScaled - 720p - AC3 - 5.1 ALL Music VideoS [W-H]

    Follow us on Social Media








    Delhi Belly (2011) DVDRip - UpScaled - 720p - AC3 - 5.1 ALL Music VideoS [W-H]


    General
    Format : MPEG-4
    Format profile : Base Media / Version 2
    Codec ID : mp42
    File size : 78.8 MiB
    Duration : 4mn 9s
    Overall bit rate : 2 647 Kbps
    Encoded date : UTC 2011-05-26 22:07:44
    Tagged date : UTC 2011-05-26 22:07:44
    gsst : 0
    gstd : 249640
    gssd : B4A7D6201HH1306843473039377
    gshh : o-o.preferred.bom01s02.v17.lscache3.c.youtube.com
    Video #1
    ID : 1
    Format : AVC
    Format/Info : Advanced Video Codec
    Format profile : [email protected]
    Format settings, CABAC : Yes
    Format settings, ReFrames : 1 frame
    Codec ID : avc1
    Codec ID/Info : Advanced Video Coding
    Duration : 4mn 9s
    Bit rate mode : Variable
    Bit rate : 2 491 Kbps
    Maximum bit rate : 5 482 Kbps
    Width : 1 280 pixels
    Height : 720 pixels
    Display aspect ratio : 16:9
    Frame rate mode : Constant
    Frame rate : 25.000 fps
    Resolution : 24 bits
    Colorimetry : 4:2:0
    Scan type : Progressive
    Bits/(Pixel*Frame) : 0.108
    Stream size : 74.1 MiB (94%)
    Encoded date : UTC 1970-01-01 00:00:00
    Tagged date : UTC 2011-05-26 22:07:46
    Audio #2
    ID : 2
    Format : AAC
    Format/Info : Advanced Audio Codec
    Format version : Version 4
    Format profile : LC
    Format settings, SBR : No
    Codec ID : 40
    Duration : 4mn 9s
    Bit rate mode : Variable
    Bit rate : 152 Kbps
    Maximum bit rate : 180 Kbps
    Channel(s) : 2 channels
    Channel positions : L R
    Sampling rate : 44.1 KHz
    Resolution : 16 bits
    Stream size : 4.52 MiB (6%)
    Encoded date : UTC 2011-05-26 22:07:45
    Tagged date : UTC 2011-05-26 22:07:46


    01 - Bhaag D.K. Bose Aandhi Aayi
    02 - Nakkadwaley Disco Udhaarwaley Khisko
    03 - Jaa Chudail
    04 - Switty Tera Pyaar Chaida
























    Code:
    http://www.fileserve.com/file/2jTPFfw/1.bhag.dk.bose.Delhi.belly_KP_W-home.mp4
    http://www.fileserve.com/file/hNAxhMt/2.Nakkaddwaley.Disco.Udhaarwaley.Khisko.Delhi.belly_KP_W-home.mp4
    http://www.fileserve.com/file/rj6rJhJ/3.JAA.CHUDAIL.Delhi.belly_KP_W-home.mp4
    http://www.fileserve.com/file/69ZkTxq/4.Switty.Tera.Pyaar.Delhi.Belly_KP_W-home.mp4

    Code:
    http://www.filesonic.com/file/1607423624/1.bhag.dk.bose.Delhi.belly_KP_W-home.mp4
    http://www.filesonic.com/file/1607427594/2.Nakkaddwaley.Disco.Udhaarwaley.Khisko.Delhi.belly_KP_W-home.mp4
    http://www.filesonic.com/file/1607427631/3.JAA.CHUDAIL.Delhi.belly_KP_W-home.mp4
    http://www.filesonic.com/file/1607432014/4.Switty.Tera.Pyaar.Delhi.Belly_KP_W-home.mp4

    Code:
    https://rapidshare.com/files/3689712063/1.bhag.dk.bose.Delhi.belly_KP_W-home.mp4
    https://rapidshare.com/files/709346500/2.Nakkaddwaley.Disco.Udhaarwaley.Khisko.Delhi.belly_KP_W-home.mp4
    https://rapidshare.com/files/399895673/3.JAA.CHUDAIL.Delhi.belly_KP_W-home.mp4
    https://rapidshare.com/files/3017306771/4.Switty.Tera.Pyaar.Delhi.Belly_KP_W-home.mp4

    All In One Link:
    Code:
    http://cramit.in/32lv538du61n
    
    or
    
    http://www.fileserve.com/file/yDh5Zzy




  2. #2
    New Arrivals
    Join Date
    May 2011
    Posts
    5

    T

    Default

    Thanks...........

 

 

Posting Permissions

  • You may not post new threads
  • You may not post replies
  • You may not post attachments
  • You may not edit your posts
  •