Results 1 to 1 of 1
  1. #1
    dR Rockers www.desirulez.net
    Join Date
    Jul 2009
    Posts
    551

    T

    Default *****cat Dolls - Bottle Pop [2009][DVDRip][Very HQ x264][RS+MU]

    Follow us on Social Media







    *****cat Dolls - Bottle Pop

    [IMG]http://img41.imageshack.us/img41/7476/*****catdollsbottlepop1.png[/IMG]
    CAPS





    [IMG]http://img41.imageshack.us/img41/1107/*****catdollsbottlepop.jpg[/IMG]

    Code:
    Video
    Format                           : MPEG-4 Visual
    Format profile                   : Streaming [email protected]
    Format settings, BVOP            : Yes
    Format settings, QPel            : Yes
    Format settings, GMC             : 3 warppoints
    Format settings, Matrix          : Default
    Muxing mode                      : Packed bitstream
    Codec ID                         : XVID
    Codec ID/Hint                    : XviD
    Duration                         : 2mn 57s
    Bit rate                         : 2 103 Kbps
    Width                            : 704 pixels
    Height                           : 408 pixels
    Display aspect ratio             : 16/9
    Frame rate                       : 23.976 fps
    Resolution                       : 24 bits
    Colorimetry                      : 4:2:0
    Scan type                        : Progressive
    Bits/(Pixel*Frame)               : 0.305
    Stream size                      : 44.5 MiB (93%)
    Writing library                  : XviD 1.2.0.dev47 (UTC 2006-11-01)
    
    Audio
    Format                           : MPEG Audio
    Format version                   : Version 1
    Format profile                   : Layer 3
    Codec ID                         : 55
    Codec ID/Hint                    : MP3
    Duration                         : 2mn 57s
    Bit rate mode                    : Constant
    Bit rate                         : 160 Kbps
    Minimum bit rate                 : 160 Kbps
    Channel(s)                       : 2 channels
    Sampling rate                    : 48.0 KHz
    Resolution                       : 16 bits
    Stream size                      : 3.39 MiB (7%)
    Alignment                        : Aligned on interleaves
    Interleave, duration             : 42 ms (1.00 video frame)
    Interleave, preload duration     : 504 ms
    Writing library                  : LAME3.97 
    Encoding settings                : CBR
    DOWNLOAD
    RAPIDSHARE
    MEGAUPLOAD
    [/quote]
    <

 

 

Posting Permissions

  • You may not post new threads
  • You may not post replies
  • You may not post attachments
  • You may not edit your posts
  •