Results 1 to 1 of 1
  1. #1
    dR Rockers www.desirulez.net
    Join Date
    Jul 2009
    Posts
    551

    T

    Default Britney Spears - Boys [HD 720p][RS+MU]

    Follow us on Social Media







    Britney Spears - Boys








    Code:
    General
    Complete name                    : Z:\M�zikler\Music Videos\Britney Spears\Britney Spears - Boys.mp4
    Format                           : MPEG-4
    Format profile                   : Base Media / Version 2
    Codec ID                         : mp42
    File size                        : 55.0 MiB
    Duration                         : 3mn 37s
    Overall bit rate                 : 2 126 Kbps
    Encoded date                     : UTC 2009-01-10 02:28:09
    Tagged date                      : UTC 2009-01-10 02:28:09
    
    Video
    Format                           : AVC
    Format/Info                      : Advanced Video Codec
    Format profile                   : [email protected]
    Format settings, CABAC           : Yes
    Format settings, ReFrames        : 3 frames
    Codec ID                         : avc1
    Codec ID/Info                    : Advanced Video Coding
    Duration                         : 3mn 36s
    Bit rate mode                    : Variable
    Bit rate                         : 2 002 Kbps
    Maximum bit rate                 : 3 706 Kbps
    Width                            : 1 280 pixels
    Height                           : 720 pixels
    Display aspect ratio             : 16/9
    Frame rate mode                  : Constant
    Frame rate                       : 30.000 fps
    Resolution                       : 24 bits
    Colorimetry                      : 4:2:0
    Scan type                        : Progressive
    Bits/(Pixel*Frame)               : 0.072
    Stream size                      : 51.7 MiB (94%)
    
    Audio
    Format                           : AAC
    Format/Info                      : Advanced Audio Codec
    Format version                   : Version 4
    Format profile                   : LC
    Format settings, SBR             : No
    Codec ID                         : 40
    Duration                         : 3mn 37s
    Bit rate mode                    : Variable
    Bit rate                         : 125 Kbps
    Maximum bit rate                 : 162 Kbps
    Channel(s)                       : 2 channels
    Channel positions                : L R
    Sampling rate                    : 44.1 KHz
    Resolution                       : 16 bits
    Stream size                      : 3.24 MiB (6%)


    DOWNLOAD [55 MB]
    RapidShare
    MEGAUPLOAD
    [/quote]
    <

 

 

Posting Permissions

  • You may not post new threads
  • You may not post replies
  • You may not post attachments
  • You may not edit your posts
  •