Results 1 to 1 of 1
  1. #1
    dR Rockers www.desirulez.net
    Join Date
    Sep 2011
    Posts
    59

    T

    Thumbs up Bodyguard (2011) - Music Videos - Untouched - DVD9

    Follow us on Social Media









    Bodyguard (2011) - Music Videos - Untouched - DVD9












    Code:
    Code:
    Movie        : Bodyguard (2011)
    Imdb         : http://www.imdb.com/title/tt1848771/
    Distributor  : Reliance Home Video
    Language     : Hindi | English (a few lines)
    Source       : DVD9 NTSC @ xDR (Thanks)
    Size         : 593 MB
    Container    : Vobs Untouched
    Release Date : 31 August 2011 (USA)
    Genre        : Action | Comedy | Romance   
    Director     : Siddique
    Writers      : Siddique (screenplay), Siddique (written by) , J.P. Chowksey (screenplay & dialogue) , Kiran Kotrial (screenplay & dialogue)
    Stars        : Salman Khan, Kareena Kapoor and Raj Babbar
    User Rating  : 4.9/10 from 1,965 users  
    
    Ripper Note:
    
    
    Njoy DrC Release.
    
    Always Seed After Complete Enjoy.
    Storyline

    Code:
    Code:
    Reading from a diary a lad comes to know about a nobleman 
    from Jaisinghpur, Sartaj Rana, who invited the wrath of 
    the Mhatre brothers, Ranjan and Vikrant, by sending 
    Lovely Singh to free abducted women bound for Thailand. 
    Feeling threatened, he hires Lovely as a bodyguard for 
    his collegian daughter, Divya, and her friend, Maya. 
    Divya does not appreciate being followed around by Lovely 
    and creates a fictional woman, Chhaya, who distracts 
    him by repeatedly phoning him and telling him that she 
    loves him. Lovely believes this person to be real and 
    falls in love. In a bar, Ranjan's brother attacks Divya 
    and is killed by Lovely - setting into motion a chain of 
    events that will pit Lovely not only against the enraged 
    Mhatre brothers - but also against Sartaj himself - 
    who believes that Lovely is attempting to elope with 
    his daughter.

    Technical info:

    Code:
    Code:
    Format                                   : MPEG-PS
    Overall bit rate                         : 6 810 Kbps
    
    Video
    ID                                       : 224 (0xE0)
    Format                                   : MPEG Video
    Format version                           : Version 2
    Format profile                           : [email protected]
    Format settings, BVOP                    : Yes
    Format settings, Matrix                  : Custom
    Bit rate mode                            : Variable
    Bit rate                                 : 6 227 Kbps
    Maximum bit rate                         : 5 000 Kbps
    Width                                    : 720 pixels
    Height                                   : 480 pixels
    Display aspect ratio                     : 4:3
    Frame rate                               : 29.970 fps
    Standard                                 : NTSC
    Color space                              : YUV
    Chroma subsampling                       : 4:2:0
    Bit depth                                : 8 bits
    Scan type                                : Interlaced
    Scan order                               : Top Field First
    Compression mode                         : Lossy
    Bits/(Pixel*Frame)                       : 0.601
    Stream size                              : 936 MiB (91%)
    
    Audio #1
    ID                                       : 189 (0xBD)-128 (0x80)
    Format                                   : AC-3
    Format/Info                              : Audio Coding 3
    Format profile                           : Dolby Digital
    Mode extension                           : CM (complete main)
    Muxing mode                              : DVD-Video
    Bit rate mode                            : Constant
    Bit rate                                 : 224 Kbps
    Channel(s)                               : 2 channels
    Channel positions                        : Front: L R
    Sampling rate                            : 48.0 KHz
    Bit depth                                : 16 bits
    Compression mode                         : Lossy
    Stream size                              : 33.7 MiB (3%)
    
    Audio #2
    ID                                       : 189 (0xBD)-129 (0x81)
    Format                                   : AC-3
    Format/Info                              : Audio Coding 3
    Format profile                           : Dolby Digital
    Mode extension                           : CM (complete main)
    Muxing mode                              : DVD-Video
    Bit rate mode                            : Constant
    Bit rate                                 : 224 Kbps
    Channel(s)                               : 2 channels
    Channel positions                        : Front: L R
    Sampling rate                            : 48.0 KHz
    Bit depth                                : 16 bits
    Compression mode                         : Lossy
    Delay relative to video                  : 512ms
    Stream size                              : 33.7 MiB (3%)
    Track List:

    Code:
    01 - Bodyguard - Bodyguard (2011) - Music Videos - Untouched - DVD9
    02 - I Love You - Bodyguard (2011) - Music Videos - Untouched - DVD9
    03 - Desi Beats - Bodyguard (2011) - Music Videos - Untouched - DVD9
    04 - Teri Meri - Bodyguard (2011) - Music Videos - Untouched - DVD9























    Code:
    http://www.wupload.com/file/380633266
    http://www.wupload.com/file/380638366
    http://www.wupload.com/file/380634414
    http://www.wupload.com/file/380633284

 

 

Posting Permissions

  • You may not post new threads
  • You may not post replies
  • You may not post attachments
  • You may not edit your posts
  •