Results 1 to 1 of 1
  1. #1
    dR Rockers www.desirulez.net
    Join Date
    Aug 2011
    Posts
    5,859

    T

    Default Bichhoo (2000) - Music Videos - Untouched - DVD9 - NTSC - Ibraram-=DrC-=

    Follow us on Social Media












    Bichhoo (2000) - Music Videos - Untouched - DVD9 - NTSC - Ibraram-=DrC-=
















    Code:
    Movie : Bichhoo (2000)
    Imdb :
    Code:
    http://www.imdb.com/title/tt0252277/
    Distributor :
    Language : Hindi
    Source : DVD9
    Ripper : Ibraram @ DrC
    Size : 1.21 GB
    Container : Vobs Untouched
    Release Date : 7 July 2000 (India)
    Genre : Thriller | Action | Crime
    Director : Guddu Dhanoa
    Writers :
    Stars : Bobby Deol, Rani Mukherjee and Ashish Vidyarthi
    Music :
    User Rating : 4.4/10 from 426 users

    Ripper Note:


    Njoy DrC Release.

    Always Seed After Complete Enjoy.




    Storyline

    Code:


    Jeeva is a small-time criminal leading the life of a

    nonentity. His perchant for solitude is an outcome of

    his troubled past. The fresh breath of life is the bubbly

    girl next door, Kiran. While Kiran overtly tries to befriend

    Jeeva, the latter does not pay much heed to her advances.

    Till a gang of baddies kill Kiran's family. Kiran wants

    the criminals punished, but she loses the legal battle

    and the criminals are set free. Jeeva feels sorry for Kiran

    and before you know, he's fallen in love with her.

    From here on it is operation revenge for the two.

    Jeeva trains Kiran in handling weapons and warfare.

    In the final showdown, Jeeva will sacrifice his life

    to save Kiran's life.



    Technical info:

    Code:
    Format : MPEG-PS
    Overall bit rate : 6 429 Kbps

    Video
    ID : 224 (0xE0)
    Format : MPEG Video
    Format version : Version 2
    Format profile : [email protected]
    Format settings, BVOP : Yes
    Format settings, Matrix : Default
    Format settings, GOP : M=3, N=13
    Bit rate mode : Variable
    Bit rate : 5 853 Kbps
    Maximum bit rate : 8 000 Kbps
    Width : 720 pixels
    Height : 480 pixels
    Display aspect ratio : 4:3
    Frame rate : 23.976 fps
    Standard : NTSC
    Color space : YUV
    Chroma subsampling : 4:2:0
    Bit depth : 8 bits
    Scan type : Progressive
    Scan order : 2:3 Pulldown
    Compression mode : Lossy
    Bits/(Pixel*Frame) : 0.706
    Stream size : 231 MiB (91%)

    Audio
    ID : 189 (0xBD)-128 (0x80)
    Format : AC-3
    Format/Info : Audio Coding 3
    Mode extension : CM (complete main)
    Muxing mode : DVD-Video
    Duration : 5mn 31s
    Bit rate mode : Constant
    Bit rate : 448 Kbps
    Channel(s) : 6 channels
    Channel positions : Front: L C R, Side: L R, LFE
    Sampling rate : 48.0 KHz
    Bit depth : 16 bits
    Compression mode : Lossy
    Delay relative to video : -36ms
    Stream size : 17.7 MiB (7%)



    Track List:

    Code:
    01- ToTe Ho Gaya - Bichhoo (2000) - Music Videos - Untouched - DVD9 - NTSC - Ibraram-=DrC-=
    02 - Ek Vaari Takk Lai Saanu - Bichhoo (2000) - Music Videos - Untouched - DVD9 - NTSC - Ibraram-=DrC-=
    03 - Jeevan Mein - Bichhoo (2000) - Music Videos - Untouched - DVD9 - NTSC - Ibraram-=DrC-=
    04 - Payar Ho Na Jaye - Bichhoo (2000) - Music Videos - Untouched - DVD9 - NTSC - Ibraram-=DrC-=
    05 - Payar Tu - Bichhoo (2000) - Music Videos - Untouched - DVD9 - NTSC - Ibraram-=DrC-=
    06 - End Titles - Bichhoo (2000) - Music Videos - Untouched - DVD9 - NTSC - Ibraram-=DrC-=













    Code:
    http://www.filesonic.com/file/2896590595/01- ToTe Ho Gaya - Bichhoo (2000) - Music Videos - Untouched - DVD9 - NTSC - Ibraram.VOB
    http://www.filesonic.com/file/2896272735/02 - Ek Vaari Takk Lai Saanu - Bichhoo (2000) - Music Videos - Untouched - DVD9 - NTSC - Ibraram.VOB
    http://www.filesonic.com/file/2896590635/03 - Jeevan Mein - Bichhoo (2000) - Music Videos - Untouched - DVD9 - NTSC - Ibraram.VOB
    http://www.filesonic.com/file/2896590665/04 - Payar Ho Na Jaye - Bichhoo (2000) - Music Videos - Untouched - DVD9 - NTSC - Ibraram.VOB
    http://www.filesonic.com/file/2896272715/05 - Payar Tu - Bichhoo (2000) - Music Videos - Untouched - DVD9 - NTSC - Ibraram.VOB
    http://www.filesonic.com/file/2896590615/06 - End Titles - Bichhoo (2000) - Music Videos - Untouched - DVD9 - NTSC - Ibraram.VOB
    Code:
    http://www.wupload.com/file/1848005406/01- ToTe Ho Gaya - Bichhoo (2000) - Music Videos - Untouched - DVD9 - NTSC - Ibraram.VOB
    http://www.wupload.com/file/1848005416/02 - Ek Vaari Takk Lai Saanu - Bichhoo (2000) - Music Videos - Untouched - DVD9 - NTSC - Ibraram.VOB
    http://www.wupload.com/file/1848005431/03 - Jeevan Mein - Bichhoo (2000) - Music Videos - Untouched - DVD9 - NTSC - Ibraram.VOB
    http://www.wupload.com/file/1848005446/04 - Payar Ho Na Jaye - Bichhoo (2000) - Music Videos - Untouched - DVD9 - NTSC - Ibraram.VOB
    http://www.wupload.com/file/1848008021/05 - Payar Tu - Bichhoo (2000) - Music Videos - Untouched - DVD9 - NTSC - Ibraram.VOB
    http://www.wupload.com/file/1848007966/06 - End Titles - Bichhoo (2000) - Music Videos - Untouched - DVD9 - NTSC - Ibraram.VOB
    Code:
    http://www.fileserve.com/file/cgyNSGm/01- ToTe Ho Gaya - Bichhoo (2000) - Music Videos - Untouched - DVD9 - NTSC - Ibraram.VOB
    http://www.fileserve.com/file/qk5JVg5/02 - Ek Vaari Takk Lai Saanu - Bichhoo (2000) - Music Videos - Untouched - DVD9 - NTSC - Ibraram.VOB
    http://www.fileserve.com/file/PERbWbM/03 - Jeevan Mein - Bichhoo (2000) - Music Videos - Untouched - DVD9 - NTSC - Ibraram.VOB
    http://www.fileserve.com/file/hp7akD8/04 - Payar Ho Na Jaye - Bichhoo (2000) - Music Videos - Untouched - DVD9 - NTSC - Ibraram.VOB
    http://www.fileserve.com/file/knDHrCP/05 - Payar Tu - Bichhoo (2000) - Music Videos - Untouched - DVD9 - NTSC - Ibraram.VOB
    http://www.fileserve.com/file/S3VbZn9/06 - End Titles - Bichhoo (2000) - Music Videos - Untouched - DVD9 - NTSC - Ibraram.VOB

 

 

Posting Permissions

  • You may not post new threads
  • You may not post replies
  • You may not post attachments
  • You may not edit your posts
  •