Results 1 to 1 of 1
  1. #1
    dR Contributor www.desirulez.net
    Join Date
    Sep 2008
    Posts
    164

    T

    Default Aladin (2009) *Amitabh & Sanjay Dutt - Threatical Trailer - XviD|MP3

    Follow us on Social Media







    Aladin (2009) *Amitabh & Sanjay Dutt - Threatical Trailer - XviD|MP3





    Information

    General
    Complete name : C:\Documents and Settings\Jai Bholenath Ji\Desktop\Aladin (2009) Amitabh & Sanjay Dutt -

    Threatical Trailer - XviDMP3 [ Team DUS ].avi
    Format : AVI
    Format/Info : Audio Video Interleave
    File size : 30.4 MiB
    Duration : 2mn 43s
    Overall bit rate : 1 560 Kbps
    Writing library : VirtualDub build 30091/release

    Video
    Format : MPEG-4 Visual
    Format profile : Streaming [email protected]
    Format settings, BVOP : Yes
    Format settings, QPel : No
    Format settings, GMC : No warppoints
    Format settings, Matrix : Default
    Codec ID : XVID
    Codec ID/Hint : XviD
    Duration : 2mn 43s
    Bit rate : 1 438 Kbps
    Width : 608 pixels
    Height : 272 pixels
    Display aspect ratio : 2.25
    Frame rate : 25.000 fps
    Resolution : 24 bits
    Colorimetry : 4:2:0
    Scan type : Progressive
    Bits/(Pixel*Frame) : 0.348
    Stream size : 28.1 MiB (92%)
    Writing library : XviD 50

    Audio Format : MPEG Audio
    Format version : Version 1
    Format profile : Layer 3
    Codec ID : 55
    Codec ID/Hint : MP3
    Duration : 2mn 43s
    Bit rate mode : Constant
    Bit rate : 112 Kbps
    Minimum bit rate : 112 Kbps
    Channel(s) : 2 channels
    Sampling rate : 44.1 KHz
    Resolution : 16 bits
    Stream size : 2.19 MiB (7%)
    Alignment : Split accross interleaves
    Interleave, duration : 40 ms (1.00 video frame)
    Interleave, preload duration : 500 ms
    Writing library : LAME3.98r
    Encoding settings : CBR





    Ripped by : coolboyz2323z TEAM M2TV




    Uploader.........Im2good TEAM DUS




    CAPS


















    DOWNLOAD LINK


    [HIDE]
    Code:
    http://rapidshare.com/files/281492053/Aladin.2009.Trailor.By.Im2good.avi
    [/HIDE]


    NOTE




    GIVE CREDIT TO Im2good {TEAM Dus} FOR PROVDING LINKS ON RAPIDSHARE

 

 

Posting Permissions

  • You may not post new threads
  • You may not post replies
  • You may not post attachments
  • You may not edit your posts
  •