Results 1 to 1 of 1
  1. #1
    Banned www.desirulez.net
    Join Date
    Jun 2011
    Posts
    229

    T

    Post Universal Soldier Trilogy [Dual Audio] Brrip 720p-Deadman

    Follow us on Social Media




    300


    336
    Universal Soldier Trilogy [Dual Audio] Brrip 720p-Deadman


    Universal Soldier (1992) BluRay Rip 720p [Dual Audio]



    Code:
    Format                           : Matroska
    File size                        : 544 MiB
    Duration                         : 1h 43mn
    Overall bit rate                 : 733 Kbps
    Movie name                       : Rip By DeadMan-www.ExDesi.Com
    Encoded date                     : UTC 2011-06-04 14:38:03
    Writing application              : mkvmerge v4.4.0 ('Die Wiederkehr') built on Oct 31 2010 21:52:48
    Writing library                  : libebml v1.0.0 + libmatroska v1.0.0
    
    Video
    ID                               : 1
    Format                           : AVC
    Format/Info                      : Advanced Video Codec
    Format profile                   : High****************L4.1
    Format settings, CABAC           : Yes
    Format settings, ReFrames        : 3 frames
    Muxing mode                      : Header stripping
    Codec ID                         : V_MPEG4/ISO/AVC
    Duration                         : 1h 43mn
    Nominal bit rate                 : 569 Kbps
    Width                            : 1 280 pixels
    Height                           : 544 pixels
    Display aspect ratio             : 2.35:1
    Frame rate                       : 23.976 fps
    Color space                      : YUV
    Chroma subsampling               : 4:2:0
    Bit depth                        : 8 bits
    Scan type                        : Progressive
    Bits/(Pixel*Frame)               : 0.034
    Writing library                  : x264 core 68 r1183M f21daff
    Encoding settings                : cabac=1 / ref=3 / deblock=1:0:0 / analyse=0x3:0x113 / me=hex / subme=7 / psy_rd=1.0:0.0 / mixed_ref=1 / me_range=16 / chroma_me=1 / trellis=1 / 8x8dct=1 / cqm=0 / deadzone=21,11 / chroma_qp_offset=-2 / threads=6 / nr=0 / decimate=1 / mbaff=0 / bframes=3 / b_pyramid=0 / b_adapt=1 / b_bias=0 / direct=1 / wpredb=1 / keyint=250 / keyint_min=25 / scenecut=40 / rc=2pass / bitrate=569 / ratetol=1.0 / qcomp=0.60 / qpmin=10 / qpmax=51 / qpstep=4 / cplxblur=20.0 / qblur=0.5 / ip_ratio=1.40 / pb_ratio=1.30 / aq=1:1.00
    
    Audio #1
    ID                               : 2
    Format                           : MPEG Audio
    Format version                   : Version 1
    Format profile                   : Layer 3
    Mode                             : Joint stereo
    Mode extension                   : MS Stereo
    Muxing mode                      : Header stripping
    Codec ID                         : A_MPEG/L3
    Codec ID/Hint                    : MP3
    Duration                         : 1h 43mn
    Bit rate mode                    : Constant
    Bit rate                         : 128 Kbps
    Channel(s)                       : 2 channels
    Sampling rate                    : 48.0 KHz
    Compression mode                 : Lossy
    Delay relative to video          : 23s 500ms
    Stream size                      : 94.6 MiB (17%)
    Title                            : Deadman
    Writing library                  : LAME3.98r
    Encoding settings                : -m j -V 4 -q 2 -lowpass 17 -b 128
    Language                         : Hindi
    
    Audio #2
    ID                               : 3
    Format                           : AAC
    Format/Info                      : Advanced Audio Codec
    Format profile                   : HE-AAC / LC
    Codec ID                         : A_AAC
    Duration                         : 1h 43mn
    Channel(s)                       : 2 channels
    Channel positions                : Front: L R
    Sampling rate                    : 48.0 KHz / 24.0 KHz
    Compression mode                 : Lossy
    Title                            : Deadman
    Language                         : English



    ~*Downloads*~

    Fileserve
    Code:
    http://www.fileserve.com/file/JAMM44S
    Filesonic
    Code:
    http://www.filesonic.com/file/1200397954/Universal Soldier 1992 BRRip 720p[Dual Audio] -deadman (1).mkv
    Universal Soldier The Return 1999 BRRip 720p Eng-Hindi



    Code:
    Format                           : Matroska
    File size                        : 423 MiB
    Duration                         : 1h 22mn
    Overall bit rate                 : 713 Kbps
    Movie name                       : Rip By DeadMan-www.ExDesi.Com
    Encoded date                     : UTC 2011-06-04 14:40:10
    Writing application              : mkvmerge v4.4.0 ('Die Wiederkehr') built on Oct 31 2010 21:52:48
    Writing library                  : libebml v1.0.0 + libmatroska v1.0.0
    
    Video
    ID                               : 1
    Format                           : AVC
    Format/Info                      : Advanced Video Codec
    Format profile                   : High****************L3.1
    Format settings, CABAC           : Yes
    Format settings, ReFrames        : 5 frames
    Muxing mode                      : Header stripping
    Codec ID                         : V_MPEG4/ISO/AVC
    Duration                         : 1h 22mn
    Nominal bit rate                 : 549 Kbps
    Width                            : 1 280 pixels
    Height                           : 688 pixels
    Display aspect ratio             : 1.850
    Frame rate                       : 23.976 fps
    Color space                      : YUV
    Chroma subsampling               : 4:2:0
    Bit depth                        : 8 bits
    Scan type                        : Progressive
    Bits/(Pixel*Frame)               : 0.026
    Writing library                  : x264 core 67 r1139M 1024283
    Encoding settings                : cabac=1 / ref=5 / deblock=1:-2:-1 / analyse=0x3:0x113 / me=umh / subme=6 / psy_rd=1.0:0.0 / mixed_ref=1 / me_range=16 / chroma_me=1 / trellis=1 / 8x8dct=1 / cqm=0 / deadzone=21,11 / chroma_qp_offset=-2 / threads=3 / nr=0 / decimate=1 / mbaff=0 / bframes=16 / b_pyramid=1 / b_adapt=1 / b_bias=0 / direct=3 / wpredb=1 / keyint=250 / keyint_min=25 / scenecut=40 / rc=2pass / bitrate=549 / ratetol=1.0 / qcomp=0.60 / qpmin=10 / qpmax=51 / qpstep=4 / cplxblur=20.0 / qblur=0.5 / ip_ratio=1.40 / pb_ratio=1.30 / aq=1:1.00
    
    Audio #1
    ID                               : 2
    Format                           : MPEG Audio
    Format version                   : Version 1
    Format profile                   : Layer 3
    Mode                             : Joint stereo
    Mode extension                   : MS Stereo
    Muxing mode                      : Header stripping
    Codec ID                         : A_MPEG/L3
    Codec ID/Hint                    : MP3
    Duration                         : 1h 22mn
    Bit rate mode                    : Constant
    Bit rate                         : 128 Kbps
    Channel(s)                       : 2 channels
    Sampling rate                    : 48.0 KHz
    Compression mode                 : Lossy
    Delay relative to video          : 23s 500ms
    Stream size                      : 75.6 MiB (18%)
    Title                            : Deadman
    Writing library                  : LAME3.98r
    Encoding settings                : -m j -V 4 -q 2 -lowpass 17 -b 128
    Language                         : Hindi
    
    Audio #2
    ID                               : 3
    Format                           : AAC
    Format/Info                      : Advanced Audio Codec
    Format profile                   : HE-AAC / LC
    Codec ID                         : A_AAC
    Duration                         : 1h 22mn
    Channel(s)                       : 2 channels
    Channel positions                : Front: L R
    Sampling rate                    : 48.0 KHz / 24.0 KHz
    Compression mode                 : Lossy
    Title                            : DeadMan
    Language                         : English




    ~*Downloads*~

    Fileserve
    Code:
    http://www.fileserve.com/file/Tju6wku
    Filesonic
    Code:
    http://www.filesonic.com/file/1200339134/Universal_Soldier_the_return-1999_Brrip720p-Dual_Audio_(1).mkv
    Universal Soldier: Regeneration (2009) 720p - BRRip - Dual-Audio



    Code:
    Format                           : Matroska
    File size                        : 483 MiB
    Duration                         : 1h 36mn
    Overall bit rate                 : 697 Kbps
    Movie name                       : Rip By Deadman-Www.ExDesi.Com
    Encoded date                     : UTC 2011-06-04 15:41:52
    Writing application              : mkvmerge v4.4.0 ('Die Wiederkehr') built on Oct 31 2010 21:52:48
    Writing library                  : libebml v1.0.0 + libmatroska v1.0.0
    
    Video
    ID                               : 1
    Format                           : AVC
    Format/Info                      : Advanced Video Codec
    Format profile                   : High****************L3.1
    Format settings, CABAC           : Yes
    Format settings, ReFrames        : 5 frames
    Muxing mode                      : Header stripping
    Codec ID                         : V_MPEG4/ISO/AVC
    Duration                         : 1h 36mn
    Nominal bit rate                 : 536 Kbps
    Width                            : 1 280 pixels
    Height                           : 544 pixels
    Display aspect ratio             : 2.35:1
    Frame rate                       : 23.976 fps
    Color space                      : YUV
    Chroma subsampling               : 4:2:0
    Bit depth                        : 8 bits
    Scan type                        : Progressive
    Bits/(Pixel*Frame)               : 0.032
    Writing library                  : x264 core 80 r1376M 3feaec2
    Encoding settings                : cabac=1 / ref=5 / deblock=1:-2:-1 / analyse=0x3:0x113 / me=umh / subme=5 / psy=1 / psy_rd=0.0:0.0 / mixed_ref=1 / me_range=16 / chroma_me=1 / trellis=1 / 8x8dct=1 / cqm=0 / deadzone=21,11 / fast_pskip=1 / chroma_qp_offset=0 / threads=3 / sliced_threads=0 / nr=0 / decimate=1 / mbaff=0 / constrained_intra=0 / bframes=16 / b_pyramid=0 / b_adapt=1 / b_bias=0 / direct=3 / wpredb=1 / wpredp=2 / keyint=250 / keyint_min=25 / scenecut=40 / rc_lookahead=40 / rc=2pass / mbtree=1 / bitrate=536 / ratetol=1.0 / qcomp=0.60 / qpmin=10 / qpmax=51 / qpstep=4 / cplxblur=20.0 / qblur=0.5 / ip_ratio=1.40 / aq=2:1.00
    
    Audio #1
    ID                               : 2
    Format                           : MPEG Audio
    Format version                   : Version 2
    Format profile                   : Layer 2
    Muxing mode                      : Header stripping
    Codec ID                         : A_MPEG/L2
    Codec ID/Hint                    : MP2
    Duration                         : 1h 36mn
    Bit rate mode                    : Constant
    Bit rate                         : 128 Kbps
    Channel(s)                       : 2 channels
    Sampling rate                    : 24.0 KHz
    Compression mode                 : Lossy
    Delay relative to video          : 2s 700ms
    Stream size                      : 88.8 MiB (18%)
    Title                            : Deadman
    Language                         : Hindi
    
    Audio #2
    ID                               : 3
    Format                           : AAC
    Format/Info                      : Advanced Audio Codec
    Format profile                   : HE-AAC / LC
    Codec ID                         : A_AAC
    Duration                         : 1h 36mn
    Channel(s)                       : 2 channels
    Channel positions                : Front: L R
    Sampling rate                    : 44.1 KHz / 22.05 KHz
    Compression mode                 : Lossy
    Title                            : Deadman
    Language                         : English




    ~*Downloads*~

    Fileserve
    Code:
    http://www.fileserve.com/file/2cfdz4K
    Filesonic
    Code:
    http://www.filesonic.com/file/1200242994/Universal Soldier Regeneration 2009 720p - BRRip - Dual-Audio (1).mkv

 

 

Posting Permissions

  • You may not post new threads
  • You may not post replies
  • You may not post attachments
  • You may not edit your posts
  •