Results 1 to 1 of 1
  1. #1
    Super Member www.desirulez.net
    Join Date
    Aug 2011
    Posts
    163

    T

    Default Twilight (Duology)- BRRIP - 720p - (Hindi)

    Follow us on Social Media









    Code:
    Format                           : Matroska
    File size                        : 560 MiB
    Duration                         : 2h 5mn
    Overall bit rate                 : 625 Kbps
    Movie name                       : Neew Moon 2009-Deadman[TDT]
    Encoded date                     : UTC 2011-09-18 17:32:49
    Writing application              : mkvmerge v4.4.0 ('Die Wiederkehr') built on Oct 31 2010 21:52:48
    Writing library                  : libebml v1.0.0 + libmatroska v1.0.0
    
    Video
    ID                               : 2
    Format                           : AVC
    Format/Info                      : Advanced Video Codec
    Format profile                   : [email protected]
    Format settings, CABAC           : Yes
    Format settings, ReFrames        : 8 frames
    Muxing mode                      : Header stripping
    Codec ID                         : V_MPEG4/ISO/AVC
    Duration                         : 2h 5mn
    Bit rate                         : 565 Kbps
    Width                            : 1 280 pixels
    Height                           : 536 pixels
    Display aspect ratio             : 2.35:1
    Frame rate                       : 25.000 fps
    Original frame rate              : 23.976 fps
    Color space                      : YUV
    Chroma subsampling               : 4:2:0
    Bit depth                        : 8 bits
    Scan type                        : Progressive
    Bits/(Pixel*Frame)               : 0.033
    Stream size                      : 506 MiB (90%)
    Title                            : Rip By Deadman-Deadman[TDT]
    Language                         : Hindi
    
    Audio
    ID                               : 1
    Format                           : MPEG Audio
    Format version                   : Version 2
    Format profile                   : Layer 3
    Mode                             : Joint stereo
    Mode extension                   : MS Stereo
    Muxing mode                      : Header stripping
    Codec ID                         : A_MPEG/L3
    Codec ID/Hint                    : MP3
    Duration                         : 2h 5mn
    Bit rate mode                    : Constant
    Bit rate                         : 48.0 Kbps
    Channel(s)                       : 2 channels
    Sampling rate                    : 16.0 KHz
    Compression mode                 : Lossy
    Delay relative to video          : 2s 800ms
    Stream size                      : 43.0 MiB (8%)
    Title                            : Hindi Audio
    Writing library                  : LAME3.98 (beta)
    Language                         : Hindi
    
    
    Format                           : Matroska
    File size                        : 641 MiB
    Duration                         : 1h 58mn
    Overall bit rate                 : 754 Kbps
    Movie name                       : Eclipse 2010 BRRip 720p-(Hindi) by Deadman[TDT]
    Encoded date                     : UTC 2011-09-18 17:30:04
    Writing application              : mkvmerge v4.4.0 ('Die Wiederkehr') built on Oct 31 2010 21:52:48
    Writing library                  : libebml v1.0.0 + libmatroska v1.0.0
    
    Video
    ID                               : 1
    Format                           : AVC
    Format/Info                      : Advanced Video Codec
    Format profile                   : [email protected]
    Format settings, CABAC           : Yes
    Format settings, ReFrames        : 8 frames
    Muxing mode                      : Header stripping
    Codec ID                         : V_MPEG4/ISO/AVC
    Duration                         : 1h 58mn
    Bit rate                         : 608 Kbps
    Width                            : 1 280 pixels
    Height                           : 528 pixels
    Display aspect ratio             : 2.40:1
    Frame rate                       : 25.000 fps
    Original frame rate              : 23.976 fps
    Color space                      : YUV
    Chroma subsampling               : 4:2:0
    Bit depth                        : 8 bits
    Scan type                        : Progressive
    Bits/(Pixel*Frame)               : 0.036
    Stream size                      : 520 MiB (81%)
    
    
    
    Audio
    ID                               : 2
    Format                           : MPEG Audio
    Format version                   : Version 1
    Format profile                   : Layer 3
    Mode                             : Joint stereo
    Mode extension                   : MS Stereo
    Muxing mode                      : Header stripping
    Codec ID                         : A_MPEG/L3
    Codec ID/Hint                    : MP3
    Duration                         : 1h 58mn
    Bit rate mode                    : Constant
    Bit rate                         : 128 Kbps
    Channel(s)                       : 2 channels
    Sampling rate                    : 44.1 KHz
    Compression mode                 : Lossy
    Stream size                      : 109 MiB (17%)
    Title                            : Deadman[TDT]
    Writing library                  : LAME3.98.2
    Language                         : Hindi




    Download Eclipse 2010
    Download New Moon 2009

 

 

Posting Permissions

  • You may not post new threads
  • You may not post replies
  • You may not post attachments
  • You may not edit your posts
  •