Results 1 to 1 of 1
  1. #1
    Super Member www.desirulez.net
    Join Date
    Oct 2010
    Posts
    181

    T

    Default Species 2 (1998) DvDRip Dual audio R Rated [Eng-Hindi]

    Follow us on Social Media







    Species 2 (1998) DvDRip Dual audio R Rated [Eng-Hindi]




    info
    Quote
    General
    Format : AVI
    Format/Info : Audio Video Interleave
    Format profile : OpenDML
    Format settings : rec
    File size : 954 MiB
    Duration : 1h 29mn
    Overall bit rate : 1 494 Kbps
    Writing application : AVI-Mux GUI 1.17.8.3, Feb 16 201019:42:50

    Video
    ID : 0
    Format : MPEG-4 Visual
    Format settings, BVOP : 1
    Format settings, QPel : No
    Format settings, GMC : No warppoints
    Format settings, Matrix : Default (H.263)
    Muxing mode : Packed bitstream
    Codec ID : DX50
    Codec ID/Hint : DivX 5
    Duration : 1h 29mn
    Bit rate : 1 241 Kbps
    Width : 848 pixels
    Height : 432 pixels
    Display aspect ratio : 1.963
    Frame rate : 25.000 fps
    Color space : YUV
    Chroma subsampling : 4:2:0
    Bit depth : 8 bits
    Scan type : Progressive
    Compression mode : Lossy
    Bits/(Pixel*Frame) : 0.136
    Stream size : 792 MiB (83%)
    Writing library : DivX 6.2.5 (UTC 2006-07)

    Audio #1
    ID : 1
    Format : MPEG Audio
    Format version : Version 1
    Format profile : Layer 3
    Mode : Dual mono
    Codec ID : 55
    Codec ID/Hint : MP3
    Duration : 1h 29mn
    Bit rate mode : Constant
    Bit rate : 128 Kbps
    Channel(s) : 2 channels
    Sampling rate : 48.0 KHz
    Compression mode : Lossy
    Stream size : 81.7 MiB (9%)
    Alignment : Aligned on interleaves
    Interleave, duration : 583 ms (14.57 video frames)
    Interleave, preload duration : 216 ms
    Title : Audio

    Audio #2
    ID : 2
    Format : MPEG Audio
    Format version : Version 1
    Format profile : Layer 3
    Mode : Joint stereo
    Mode extension : MS Stereo
    Codec ID : 55
    Codec ID/Hint : MP3
    Duration : 1h 24mn
    Bit rate mode : Constant
    Bit rate : 128 Kbps
    Channel(s) : 2 channels
    Sampling rate : 48.0 KHz
    Compression mode : Lossy
    Stream size : 77.3 MiB (8%)
    Alignment : Aligned on interleaves
    Interleave, duration : 635 ms (15.88 video frames)
    Interleave, preload duration : 216 ms
    Title : CurrentHD







    Code:
    http://www.imdb.com/title/tt0120841/










    Code:
    http://www.fileserve.com/file/VvW4ej8
    http://www.fileserve.com/file/GmDapKq
    http://www.fileserve.com/file/cftUjzS
    http://www.fileserve.com/file/cz5nxYv
    http://www.fileserve.com/file/SY37nu6
    Last edited by badshahpyare; 03-09-2011 at 11:35 AM.

 

 

Posting Permissions

  • You may not post new threads
  • You may not post replies
  • You may not post attachments
  • You may not edit your posts
  •