Results 1 to 1 of 1
  1. #1

    Default Source Code R5 2011Dual Audio [Hin-Eng] Only 438mb With Sample

    Follow us on Social Media























    General

    File size : 438 MiB
    Duration : 1h 26mn [end credit cut]
    Overall bit rate : 707 Kbps
    Movie name : Source Code R5 2011Dual Audio [Hin-Eng]
    Encoded date : UTC 2011-06-12 12:28:37
    Writing application : mkvmerge v4.7.0 ('Just Like You Imagined') built on Apr 21 2011 01:13:14
    Writing library : libebml v1.2.0 + libmatroska v1.1.0

    Video
    ID : 1
    Format : AVC
    Format/Info : Advanced Video Codec
    Format profile : High****************L4.0
    Format settings, CABAC : Yes
    Format settings, ReFrames : 3 frames
    Muxing mode : Container profile=Unknown****************4.0
    Codec ID : V_MPEG4/ISO/AVC
    Duration : 1h 26mn
    Bit rate : 565 Kbps
    Width : 720 pixels
    Height : 400 pixels
    Display aspect ratio : 16:9
    Frame rate : 29.970 fps
    Resolution : 24 bits
    Colorimetry : 4:2:0
    Scan type : Progressive
    Bits/(Pixel*Frame) : 0.065
    Stream size : 350 MiB (80%)
    Title : imkhan
    Writing library : x264 core 104 r1683 62997d6
    Encoding settings : cabac=1 / ref=3 / deblock=1:0:0 / analyse=0x3:0x133 / me=umh / subme=7 / psy=1 / psy_rd=1.00:0.00 / mixed_ref=1 / me_range=16 / chroma_me=1 / trellis=1 / 8x8dct=1 / cqm=0 / deadzone=21,11 / fast_pskip=1 / chroma_qp_offset=-2 / threads=6 / sliced_threads=0 / nr=0 / decimate=1 / interlaced=0 / constrained_intra=0 / bframes=3 / b_pyramid=0 / b_adapt=1 / b_bias=0 / direct=1 / weightb=1 / open_gop=0 / weightp=2 / keyint=300 / keyint_min=30 / scenecut=40 / intra_refresh=0 / rc_lookahead=40 / rc=crf / mbtree=1 / crf=22.0 / qcomp=0.60 / qpmin=10 / qpmax=51 / qpstep=4 / vbv_maxrate=650 / vbv_bufsize=600 / crf_max=0.0 / ip_ratio=1.40 / aq=1:1.00 / nal_hrd=none
    Language : Hindi

    Audio #1
    ID : 2
    Format : MPEG Audio
    Format version : Version 2
    Format profile : Layer 3
    Codec ID : A_MPEG/L3
    Codec ID/Hint : MP3
    Duration : 1h 26mn
    Bit rate mode : Constant
    Bit rate : 64.0 Kbps
    Channel(s) : 2 channels
    Sampling rate : 22.05 KHz
    Resolution : 16 bits
    Stream size : 39.7 MiB (9%)
    Title : imkhan
    Language : Hindi

    Audio #2
    ID : 3
    Format : MPEG Audio
    Format version : Version 2
    Format profile : Layer 3
    Codec ID : A_MPEG/L3
    Codec ID/Hint : MP3
    Duration : 1h 26mn
    Bit rate mode : Constant
    Bit rate : 64.0 Kbps
    Channel(s) : 2 channels
    Sampling rate : 22.05 KHz
    Resolution : 16 bits
    Stream size : 39.7 MiB (9%)
    Title : imkhan

    Sample:
    Code:
    http://www.fileserve.com/file/DfdKMHD

    Download:
    Code:
    http://www.fileserve.com/file/9TBGren

 

 

Posting Permissions

  • You may not post new threads
  • You may not post replies
  • You may not post attachments
  • You may not edit your posts
  •