Results 1 to 1 of 1
  1. #1

    Cool Skyline (2010) 720P.BRRIP.6CH.Proper Audio Sync(5.1).Dual Audio(Hin-Eng).Team ArG

    Follow us on Social Media








    Skyline (2010) 720P.BRRIP.6CH.Proper Audio Sync(5.1).Dual Audio(Hin-Eng).Team ArG



    INFO::

    Movie Information:
    Directors:Colin Strause, Greg Strause
    Writers:Joshua Cordes, Liam O'Donnell
    Stars:Eric Balfour, Donald Faison and Scottie Thompson
    Budget10,000,000 (estimated)
    Opening Weekend11,692,415 (USA) (14 November 2010) (2880 Screens)
    Gross65,070,978 (Worldwide) (12 January 2011)
    Storyline:
    arrod and his pregnant girlfriend Elaine travel to Los Angeles to meet his old friend and successful entrepreneur Terryand his wife Candice. Terry gives a party in his apartment for Jarrod and offers a job position to him in LA. Terry's assistant and lover Denise (Crystal Reed) and his friend Ray (Neil Hopkins) sleep in the couch in the living room, but in the dawn of the next morning, the group is awakened by mysterious beams of blue light. Ray stares at the light and is taken by the mysterious force. The group of friends try to escape from the alien invaders.

    IMDB LINK:Skyline (2010) - IMDb
    Video Specifications:
    Format : MPEG-4
    Format profile : Base Media / Version 2
    Codec ID : mp42
    File size : 664 MiB
    Duration : 1h 32mn
    Overall bit rate : 1 002 Kbps

    Video
    ID : 1
    Format : AVC
    Format/Info : Advanced Video Codec
    Format profile : [email protected]
    Format settings, CABAC : Yes
    Format settings, ReFrames : 4 frames
    Codec ID : avc1
    Codec ID/Info : Advanced Video Coding
    Duration : 1h 32mn
    Bit rate mode : Variable
    Bit rate : 611 Kbps
    Width : 720 pixels
    Height : 358 pixels
    Display aspect ratio : 2.35:1
    Original display aspect ratio : 2.35:1
    Frame rate mode : Variable
    Frame rate : 29.970 fps
    Minimum frame rate : 29.970 fps
    Maximum frame rate : 39.063 fps
    Color space : YUV
    Chroma subsampling : 4:2:0

    Audio #1
    ID : 2
    Format : AAC
    Format/Info : Advanced Audio Codec
    Format version : Version 4
    Format profile : LC
    Codec ID : 40
    Duration : 1h 32mn
    Bit rate mode : Variable
    Bit rate : 192 Kbps
    Maximum bit rate : 297 Kbps
    Channel(s) : 6 channels
    Channel positions : Front: L C R, Side: L R, LFE
    Sampling rate : 48.0 KHz
    Stream size : 128 MiB (19%)
    Language : English

    Audio #2
    ID : 3
    Format : AAC
    Format/Info : Advanced Audio Codec
    Format version : Version 4
    Format profile : LC
    Codec ID : 40
    Duration : 1h 32mn
    Bit rate mode : Variable
    Bit rate : 192 Kbps
    Maximum bit rate : 304 Kbps
    Channel(s) : 6 channels
    Channel positions : Front: L C R, Side: L R, LFE
    Sampling rate : 48.0 KHz
    Stream size : 128 MiB (19%)
    Language : Hindi

    Text
    ID : 4
    Format : VobSub
    Codec ID : subp
    Codec ID/Info : The same subtitle format used on DVDs
    Duration : 1h 26mn
    Bit rate mode : Variable
    Bit rate : 2 002 bps
    Stream size : 1.24 MiB (0%)
    Language : English
    SCREENSHOTS::





    DOWNLOAD FROM DUCKLOAD::
    Code:
    http://www.duckload.com/download/5231687/skyline.mp4
    DOWNLOAD FROM FREAKSHARE::
    Code:
    http://freakshare.com/files/qy6m0hq3/Skyline.mp4.html

    Give Credits To Team ArG wherever u share this Rip


    Thanks MySilu For Blueray Video.

    Hindi Audio Properly Sync with 5.1 Audio.

    Audio taken From original Reliance DVD.



 

 

Posting Permissions

  • You may not post new threads
  • You may not post replies
  • You may not post attachments
  • You may not edit your posts
  •