Results 1 to 1 of 1
  1. #1
    Senior Member www.desirulez.net
    Join Date
    Jul 2011
    Posts
    104

    T

    Default Rush Hour.2.2001.BRRip.720p.Dual Audio.Hindi.English AF

    Follow us on Social Media







    Rush Hour.2.2001.BRRip.720p.Dual Audio.Hindi.English AmazeForum






    Code:
    General
    Complete name                    : Rush Hour.2.2001.BRRip.720p.Dual Audio.Hindi.English.XviD.SDR-Release.avi
    Format                           : AVI
    Format/Info                      : Audio Video Interleave
    Format profile                   : OpenDML
    Format settings                  : rec
    File size                        : 879 MiB
    Duration                         : 1h 30mn
    Overall bit rate                 : 1 366 Kbps
    Writing application              : AVI-Mux GUI 1.17.8.3, Feb 16 201019:42:50
    
    Video
    ID                               : 0
    Format                           : MPEG-4 Visual
    Format profile                   : Advanced [email protected]
    Format settings, BVOP            : 4
    Format settings, QPel            : No
    Format settings, GMC             : No warppoints
    Format settings, Matrix          : Default (H.263)
    Codec ID                         : XVID
    Codec ID/Hint                    : XviD
    Duration                         : 1h 30mn
    Bit rate                         : 1 106 Kbps
    Width                            : 1 280 pixels
    Height                           : 544 pixels
    Display aspect ratio             : 2.35:1
    Frame rate                       : 23.976 fps
    Color space                      : YUV
    Chroma subsampling               : 4:2:0
    Bit depth                        : 8 bits
    Scan type                        : Progressive
    Compression mode                 : Lossy
    Bits/(Pixel*Frame)               : 0.066
    Stream size                      : 712 MiB (81%)
    Writing library                  : XviD 1.2.1 (UTC 2008-12-04)
    
    Audio #1
    ID                               : 1
    Format                           : MPEG Audio
    Format version                   : Version 1
    Format profile                   : Layer 3
    Codec ID                         : 55
    Codec ID/Hint                    : MP3
    Duration                         : 1h 30mn
    Bit rate mode                    : Constant
    Bit rate                         : 128 Kbps
    Channel(s)                       : 2 channels
    Sampling rate                    : 44.1 KHz
    Compression mode                 : Lossy
    Stream size                      : 82.4 MiB (9%)
    Alignment                        : Aligned on interleaves
    Interleave, duration             : 637 ms (15.27 video frames)
    Interleave, preload duration     : 208 ms
    Title                            : Postarbhai
    
    Audio #2
    ID                               : 2
    Format                           : MPEG Audio
    Format version                   : Version 1
    Format profile                   : Layer 3
    Mode                             : Joint stereo
    Mode extension                   : MS Stereo
    Codec ID                         : 55
    Codec ID/Hint                    : MP3
    Duration                         : 1h 30mn
    Bit rate mode                    : Constant
    Bit rate                         : 128 Kbps
    Channel(s)                       : 2 channels
    Sampling rate                    : 48.0 KHz
    Compression mode                 : Lossy
    Stream size                      : 82.4 MiB (9%)
    Alignment                        : Aligned on interleaves
    Interleave, duration             : 637 ms (15.27 video frames)
    Interleave, preload duration     : 216 ms
    Title                            : Postarbhai
    Writing library                  : LAME3.98r
    Encoding settings                : -m j -V 4 -q 2 -lowpass 17 -b 128












    Code:
    http://www.fileserve.com/file/Rk2398h/Rush_Hour.2.2001.BRRip.720p.Dual_Audio.Hindi.English.XviD.SDR-Release.avi
    
    http://www.filesonic.com/file/1397854424/Rush Hour.2.2001.BRRip.720p.Dual Audio.Hindi.English.XviD.SDR-Release.avi
    
    http://www.uploadstation.com/file/kyMg365/Rush_Hour.2.2001.BRRip.720p.Dual_Audio.Hindi.English.XviD.SDR-Release.avi
    
    http://www.wupload.com/file/46077301/Rush Hour.2.2001.BRRip.720p.Dual Audio.Hindi.English.XviD.SDR-Release.avi

 

 

Posting Permissions

  • You may not post new threads
  • You may not post replies
  • You may not post attachments
  • You may not edit your posts
  •