Results 1 to 1 of 1
  1. #1
    Banned www.desirulez.net
    Join Date
    Apr 2011
    Posts
    100

    T

    Default Priest 2011 R5 437mb Dual Audio Hin-Eng by imkhan -=TDT=-

    Follow us on Social Media









    Priest 2011 R5 437mb Dual Audio Hin-Eng by imkhan -=TDT=-










    Complete name : Priest 2011 R5 437mb Dual Audio [Hin-Eng] by imkhan -=[TDT]=-.mkv
    Format : Matroska
    File size : 437 MiB
    Duration : 1h 20mn [end credit cut]
    Overall bit rate : 759 Kbps
    Movie name : Priest 2011 R5 Dual Audio [Hin-Eng] by imkhan -=[TDT]=-
    Encoded date : UTC 2011-06-03 10:13:04
    Writing application : mkvmerge v4.7.0 ('Just Like You Imagined') built on Apr 21 2011 01:13:14
    Writing library : libebml v1.2.0 + libmatroska v1.1.0




    ID : 1
    Format : AVC
    Format/Info : Advanced Video Codec
    Format profile : High****************L4.0
    Format settings, CABAC : Yes
    Format settings, ReFrames : 3 frames
    Muxing mode : Container profile=Unknown****************4.0
    Codec ID : V_MPEG4/ISO/AVC
    Duration : 1h 20mn
    Bit rate : 520 Kbps
    Width : 800 pixels
    Height : 380 pixels
    Display aspect ratio : 2.2:1
    Frame rate : 23.976 fps
    Original frame rate : 25.000 fps
    Resolution : 24 bits
    Colorimetry : 4:2:0
    Scan type : Progressive
    Bits/(Pixel*Frame) : 0.071
    Stream size : 299 MiB (68%)
    Title : imkhan
    Writing library : x264 core 104 r1683 62997d6
    Encoding settings : cabac=1 / ref=3 / deblock=1:0:0 / analyse=0x3:0x133 / me=umh / subme=7 / psy=1 / psy_rd=1.00:0.00 / mixed_ref=1 / me_range=16 / chroma_me=1 / trellis=1 / 8x8dct=1 / cqm=0 / deadzone=21,11 / fast_pskip=1 / chroma_qp_offset=-2 / threads=6 / sliced_threads=0 / nr=0 / decimate=1 / interlaced=0 / constrained_intra=0 / bframes=3 / b_pyramid=0 / b_adapt=1 / b_bias=0 / direct=1 / weightb=1 / open_gop=0 / weightp=2 / keyint=250 / keyint_min=25 / scenecut=40 / intra_refresh=0 / rc_lookahead=40 / rc=crf / mbtree=1 / crf=22.0 / qcomp=0.60 / qpmin=10 / qpmax=51 / qpstep=4 / vbv_maxrate=700 / vbv_bufsize=600 / crf_max=0.0 / ip_ratio=1.40 / aq=1:1.00 / nal_hrd=none
    Language : Hindi




    ID : 2
    Format : MPEG Audio
    Format version : Version 1
    Format profile : Layer 3
    Codec ID : A_MPEG/L3
    Codec ID/Hint : MP3
    Duration : 1h 20mn
    Bit rate mode : Constant
    Bit rate : 96.0 Kbps
    Channel(s) : 2 channels
    Sampling rate : 44.1 KHz
    Resolution : 16 bits
    Stream size : 55.2 MiB (13%)
    Title : imkhan
    Language : Hindi




    ID : 3
    Format : MPEG Audio
    Format version : Version 1
    Format profile : Layer 3
    Codec ID : A_MPEG/L3
    Codec ID/Hint : MP3
    Duration : 1h 23mn
    Bit rate mode : Constant
    Bit rate : 128 Kbps
    Channel(s) : 2 channels
    Sampling rate : 44.1 KHz
    Resolution : 16 bits
    Stream size : 76.7 MiB (18%)
    Title : imkhan
    Writing library : LAME3.98r
    Encoding settings : -m j -V 4 -q 3 -lowpass 17 -b 128

















    Code:
    http://www.fileserve.com/file/YqgFaBK


    Code:
    http://www.duckload.com/download/6396146/Priest.mkv

    Code:
    http://www.filesonic.com/file/1155928864/Priest.mkv





 

 

Posting Permissions

  • You may not post new threads
  • You may not post replies
  • You may not post attachments
  • You may not edit your posts
  •