Results 1 to 1 of 1
  1. #1
    Banned www.desirulez.net
    Join Date
    Jan 2010
    Posts
    2,522

    T

    Thumbs up OCEAN'S 12 2004 Xvid DVDRip DUAL-AUDIO ENG-HINDI

    Follow us on Social Media







    OCEAN'S 12 2004 Xvid DVDRip DUAL-AUDIO ENG-HINDI







    Director:

    Steven Soderbergh


    Cast:
    Brad Pitt ... Rusty Ryan
    Catherine Zeta-Jones ... Isabel Lahiri
    George Clooney ... Danny Ocean
    Julia Roberts ... Tess Ocean
    Don Tiffany ... House Painter
    Andy Garcia ... Terry Benedict
    Casey Affleck ... Virgil Malloy
    Scott Caan ... Turk Malloy

    General
    Ripper : Myself 100rabh [TDBB]
    Source : DVD
    Complete name : OCEAN'S 12[2004] [Xvid-DVDRip-DUAL-AUDIO]-[ENG-HINDI]
    Format : AVI
    Format/Info : Audio Video Interleave
    Format profile : OpenDML
    File size : 925 MiB
    Duration : 2h 2mn
    Overall bit rate : 1 055 Kbps
    Writing application : AVI-Mux GUI 1.17.7

    Video
    ID : 0
    Format : MPEG-4 Visual
    Format profile : Advanced [email protected]
    Format settings, BVOP : Yes
    Format settings, QPel : No
    Format settings, GMC : No warppoints
    Format settings, Matrix : Default (H.263)
    Codec ID : DX50
    Codec ID/Hint : DivX 5
    Duration : 2h 2mn
    Bit rate : 681 Kbps
    Width : 608 pixels
    Height : 246 pixels
    Display aspect ratio : 2.472
    Frame rate : 25.000 fps
    Resolution : 24 bits
    Colorimetry : 4:2:0
    Scan type : Progressive
    Bits/(Pixel*Frame) : 0.182
    Stream size : 597 MiB (64%)
    Writing library : XviD 1.0.3 (UTC 2004-12-20)

    Audio #1
    ID : 1
    Format : MPEG Audio
    Format version : Version 1
    Format profile : Layer 3
    Codec ID : 55
    Codec ID/Hint : MP3
    Duration : 2h 0mn
    Bit rate mode : Constant
    Bit rate : 112 Kbps
    Channel(s) : 2 channels
    Sampling rate : 48.0 KHz
    Resolution : 16 bits
    Stream size : 96.4 MiB (10%)
    Alignment : Aligned on interleaves
    Interleave, duration : 809 ms (20.24 video frames)
    Interleave, preload duration : 216 ms

    Audio #2
    ID : 2
    Format : MPEG Audio
    Format version : Version 1
    Format profile : Layer 3
    Codec ID : 55
    Codec ID/Hint : MP3
    Duration : 2h 2mn
    Bit rate mode : Constant
    Bit rate : 256 Kbps
    Channel(s) : 2 channels
    Sampling rate : 44.1 KHz
    Resolution : 16 bits
    Stream size : 224 MiB (24%)
    Alignment : Aligned on interleaves
    Interleave, duration : 26 ms (0.65 video frame)
    Interleave, preload duration : 182 ms
    Title : Untitled




















    Code:
    http://rapidshare.com/files/328911980/OCEANS.12-2004.Xvid.DVDRip.DUAL-AUDIO.ENG-HINDI.By.Deejam.part1.rar
    http://rapidshare.com/files/328917256/OCEANS.12-2004.Xvid.DVDRip.DUAL-AUDIO.ENG-HINDI.By.Deejam.part2.rar
    http://rapidshare.com/files/328913788/OCEANS.12-2004.Xvid.DVDRip.DUAL-AUDIO.ENG-HINDI.By.Deejam.part3.rar
    http://rapidshare.com/files/328914224/OCEANS.12-2004.Xvid.DVDRip.DUAL-AUDIO.ENG-HINDI.By.Deejam.part4.rar
    http://rapidshare.com/files/328918163/OCEANS.12-2004.Xvid.DVDRip.DUAL-AUDIO.ENG-HINDI.By.Deejam.part5.rar




    Code:
    http://hotfile.com/dl/22608253/1252a4a/OCEANS.12-2004.Xvid.DVDRip.DUAL-AUDIO.ENG-HINDI.By.Deejam.part1.rar.html
    http://hotfile.com/dl/22608396/ae469c7/OCEANS.12-2004.Xvid.DVDRip.DUAL-AUDIO.ENG-HINDI.By.Deejam.part2.rar.html
    http://hotfile.com/dl/22608538/ee05703/OCEANS.12-2004.Xvid.DVDRip.DUAL-AUDIO.ENG-HINDI.By.Deejam.part3.rar.html
    http://hotfile.com/dl/22608710/e9597f2/OCEANS.12-2004.Xvid.DVDRip.DUAL-AUDIO.ENG-HINDI.By.Deejam.part4.rar.html
    http://hotfile.com/dl/22608830/68afd6a/OCEANS.12-2004.Xvid.DVDRip.DUAL-AUDIO.ENG-HINDI.By.Deejam.part5.rar.html



 

 

Posting Permissions

  • You may not post new threads
  • You may not post replies
  • You may not post attachments
  • You may not edit your posts
  •