Results 1 to 3 of 3
  1. #1
    dR Rockers www.desirulez.net
    Join Date
    Sep 2011
    Posts
    248

    T

    Post The Mummy Trilogy Brrip 720p (Hindi)-Deadman[TDT]

    Follow us on Social Media








    The Mummy Trilogy Brrip 720p (Hindi)-Deadman[TDT]






    Code:
    Format                           : Matroska
    File size                        : 685 MiB
    Duration                         : 1h 59mn
    Overall bit rate                 : 799 Kbps
    Movie name                       : The Mummy -1 (1999)  Brrip 720p-Hindi-Deadman[TDT].mkv
    Encoded date                     : UTC 2011-09-21 15:18:08
    Writing application              : mkvmerge v4.4.0 ('Die Wiederkehr') built on Oct 31 2010 21:52:48
    Writing library                  : libebml v1.0.0 + libmatroska v1.0.0
    
    Video
    ID                               : 1
    Format                           : AVC
    Format/Info                      : Advanced Video Codec
    Format profile                   : [email protected]
    Format settings, CABAC           : Yes
    Format settings, ReFrames        : 5 frames
    Muxing mode                      : Header stripping
    Codec ID                         : V_MPEG4/ISO/AVC
    Duration                         : 1h 59mn
    Bit rate                         : 520 Kbps
    Width                            : 1 280 pixels
    Height                           : 536 pixels
    Display aspect ratio             : 2.35:1
    Original display aspect ratio    : 2.35:1
    Frame rate                       : 25.000 fps
    Original frame rate              : 23.976 fps
    Color space                      : YUV
    Chroma subsampling               : 4:2:0
    Bit depth                        : 8 bits
    Scan type                        : Progressive
    Bits/(Pixel*Frame)               : 0.030
    Stream size                      : 452 MiB (66%)
    
    Audio
    ID                               : 2
    Format                           : MPEG Audio
    Format version                   : Version 1
    Format profile                   : Layer 3
    Muxing mode                      : Header stripping
    Codec ID                         : A_MPEG/L3
    Codec ID/Hint                    : MP3
    Duration                         : 1h 59mn
    Bit rate mode                    : Constant
    Bit rate                         : 256 Kbps
    Channel(s)                       : 2 channels
    Sampling rate                    : 44.1 KHz
    Compression mode                 : Lossy
    Delay relative to video          : 1s 0ms
    Stream size                      : 219 MiB (32%)
    Title                            : Hindi-Deadman
    Language                         : Hindi
    
    Format                           : Matroska
    File size                        : 600 MiB
    Duration                         : 2h 9mn
    Overall bit rate                 : 647 Kbps
    Movie name                       : The Mummy - 2 (2001) 720p BRRip-Hindi -Deadman[TDT]
    
    Video
    ID                               : 1
    Format                           : AVC
    Format/Info                      : Advanced Video Codec
    Format profile                   : [email protected]
    Format settings, CABAC           : Yes
    Format settings, ReFrames        : 5 frames
    Muxing mode                      : Header stripping
    Codec ID                         : V_MPEG4/ISO/AVC
    Duration                         : 2h 9mn
    Bit rate                         : 556 Kbps
    Width                            : 1 280 pixels
    Height                           : 536 pixels
    Display aspect ratio             : 2.35:1
    Original display aspect ratio    : 2.35:1
    Frame rate                       : 23.976 fps
    Color space                      : YUV
    Chroma subsampling               : 4:2:0
    Bit depth                        : 8 bits
    Scan type                        : Progressive
    Bits/(Pixel*Frame)               : 0.034
    Stream size                      : 499 MiB (83%)
    
    
    Audio
    ID                               : 2
    Format                           : MPEG Audio
    Format version                   : Version 1
    Format profile                   : Layer 3
    Mode                             : Joint stereo
    Mode extension                   : MS Stereo
    Muxing mode                      : Header stripping
    Codec ID                         : A_MPEG/L3
    Codec ID/Hint                    : MP3
    Duration                         : 2h 1mn
    Bit rate mode                    : Constant
    Bit rate                         : 96.0 Kbps
    Channel(s)                       : 2 channels
    Sampling rate                    : 32.0 KHz
    Compression mode                 : Lossy
    Stream size                      : 83.6 MiB (14%)
    Title                            : Hindi--Deadman
    Writing library                  : LAME3.98r
    Encoding settings                : -m j -V 4 -q 2 -lowpass 15.1 -b 96
    Language                         : Hindi
    
    
    
    Format                           : Matroska
    File size                        : 706 MiB
    Duration                         : 1h 47mn
    Overall bit rate                 : 922 Kbps
    Movie name                       : Rip by Deadman
    Encoded date                     : UTC 2011-09-21 15:13:55
    Writing application              : mkvmerge v4.4.0 ('Die Wiederkehr') built on Oct 31 2010 21:52:48
    Writing library                  : libebml v1.0.0 + libmatroska v1.0.0
    
    Video
    ID                               : 1
    Format                           : AVC
    Format/Info                      : Advanced Video Codec
    Format profile                   : [email protected]
    Format settings, CABAC           : Yes
    Format settings, ReFrames        : 3 frames
    Muxing mode                      : Header stripping
    Codec ID                         : V_MPEG4/ISO/AVC
    Duration                         : 1h 47mn
    Nominal bit rate                 : 800 Kbps
    Width                            : 720 pixels
    Height                           : 288 pixels
    Display aspect ratio             : 2.500
    Frame rate                       : 25.000 fps
    Color space                      : YUV
    Chroma subsampling               : 4:2:0
    Bit depth                        : 8 bits
    Scan type                        : Progressive
    Bits/(Pixel*Frame)               : 0.154
    Writing library                  : x264 core 65 r1016M dbc5ef0
    Encoding settings                : cabac=1 / ref=3 / deblock=1:-1:-1 / analyse=0x3:0x113 / me=hex / subme=6 / psy_rd=1.0:0.0 / mixed_ref=1 / me_range=16 / chroma_me=1 / trellis=1 / 8x8dct=1 / cqm=0 / deadzone=21,11 / chroma_qp_offset=-2 / threads=3 / nr=0 / decimate=1 / mbaff=0 / bframes=16 / b_pyramid=1 / b_adapt=1 / b_bias=0 / direct=1 / wpredb=1 / keyint=250 / keyint_min=25 / scenecut=40(pre) / rc=abr / bitrate=800 / ratetol=1.0 / qcomp=0.60 / qpmin=10 / qpmax=51 / qpstep=4 / ip_ratio=1.40 / pb_ratio=1.30 / aq=1:1.00
    
    Audio
    ID                               : 2
    Format                           : AAC
    Format/Info                      : Advanced Audio Codec
    Format profile                   : LC
    Codec ID                         : A_AAC
    Duration                         : 1h 47mn
    Channel(s)                       : 2 channels
    Channel positions                : Front: L R
    Sampling rate                    : 44.1 KHz
    Compression mode                 : Lossy
    Title                            : Deadman
    Language                         : Hindi
    
    Format                           : Matroska
    File size                        : 706 MiB
    Duration                         : 1h 47mn
    Overall bit rate                 : 922 Kbps
    Movie name                       : The Mummy - 3 (2008 ) [Hindi] Deadman[TDT]
    Encoded date                     : UTC 2011-09-21 15:13:55
    Writing application              : mkvmerge v4.4.0 ('Die Wiederkehr') built on Oct 31 2010 21:52:48
    Writing library                  : libebml v1.0.0 + libmatroska v1.0.0
    
    Video
    ID                               : 1
    Format                           : AVC
    Format/Info                      : Advanced Video Codec
    Format profile                   : [email protected]
    Format settings, CABAC           : Yes
    Format settings, ReFrames        : 3 frames
    Muxing mode                      : Header stripping
    Codec ID                         : V_MPEG4/ISO/AVC
    Duration                         : 1h 47mn
    Nominal bit rate                 : 800 Kbps
    Width                            : 720 pixels
    Height                           : 288 pixels
    Display aspect ratio             : 2.500
    Frame rate                       : 25.000 fps
    Color space                      : YUV
    Chroma subsampling               : 4:2:0
    Bit depth                        : 8 bits
    Scan type                        : Progressive
    Bits/(Pixel*Frame)               : 0.154
    
    Audio
    ID                               : 2
    Format                           : AAC
    Format/Info                      : Advanced Audio Codec
    Format profile                   : LC
    Codec ID                         : A_AAC
    Duration                         : 1h 47mn
    Channel(s)                       : 2 channels
    Channel positions                : Front: L R
    Sampling rate                    : 44.1 KHz
    Compression mode                 : Lossy
    Title                            : Deadman
    Language                         : Hindi













    Code:
    http://depositfiles.com/files/pb1ku8mvp
    http://depositfiles.com/files/cc90tgj76
    http://depositfiles.com/files/1lw48gf5i
    
    
    http://www.fileserve.com/file/bn43bYF/The Mummy -1 (1999)  Brrip 720p-Hindi-Deadman[TDT].mkv
    http://www.fileserve.com/file/ByYsBJj/The Mummy - 2 (2001) 720p BRRip-Hindi -Deadman[TDT].mkv
    http://www.fileserve.com/file/feGFpg6/The Mummy - 3 (2008 ) [Hindi] Deadman[TDT].mkv
    
    
    http://www.filesonic.com/file/2270142521/The Mummy -1 (1999)  Brrip 720p-Hindi-Deadman[TDT].mkv
    http://www.filesonic.com/file/2270333511/The Mummy - 2 (2001) 720p BRRip-Hindi -Deadman[TDT].mkv
    http://www.filesonic.com/file/2270143181/The Mummy - 3 (2008 ) [Hindi] Deadman[TDT].mkv
    
    
    http://www.wupload.com/file/256298937
    http://www.wupload.com/file/256322334
    http://www.wupload.com/file/256297995




  2. #2
    Landed To DesiRulez www.desirulez.net
    Join Date
    Jun 2011
    Posts
    12

    T

    Default

    thnx.....!!!

  3. #3
    New Arrivals
    Join Date
    Nov 2011
    Posts
    1

    T

    Default

    thank you

 

 

Posting Permissions

  • You may not post new threads
  • You may not post replies
  • You may not post attachments
  • You may not edit your posts
  •