Results 1 to 1 of 1
  1. #1
    Super Member www.desirulez.net
    Join Date
    Oct 2010
    Posts
    181

    T

    Default Mission_Impossible_III__2006_BRRip_720p_Eng-Hindi

    Follow us on Social Media







    Mission_Impossible_III__2006_BRRip_720p_Eng-Hindi
    Code:
    General
    Complete name                    : Mission Impossible III [RedHeart]\Mission Impossible III.mkv
    Format                           : Matroska
    File size                        : 918 MiB
    Duration                         : 2h 5mn
    Overall bit rate                 : 1 023 Kbps
    Video
    ID                               : 1
    Format                           : AVC
    Format/Info                      : Advanced Video Codec
    Format profile                   : [email protected]
    Format settings, CABAC           : Yes
    Format settings, ReFrames        : 3 frames
    Muxing mode                      : Container [email protected]
    Codec ID                         : V_MPEG4/ISO/AVC
    Duration                         : 2h 5mn
    Bit rate                         : 747 Kbps
    Nominal bit rate                 : 777 Kbps
    Width                            : 1 280 pixels
    Height                           : 544 pixels
    Display aspect ratio             : 2.35:1
    Frame rate                       : 23.976 fps
    Resolution                       : 8 bits
    Colorimetry                      : 4:2:0
    Scan type                        : Progressive
    Bits/(Pixel*Frame)               : 0.045
    Stream size                      : 669 MiB (73%)
    Writing library                  : x264 core 79
    Language                         : English
    Audio #1
    ID                               : 2
    Format                           : AC-3
    Format/Info                      : Audio Coding 3
    Codec ID                         : A_AC3
    Duration                         : 2h 5mn
    Bit rate mode                    : Constant
    Bit rate                         : 128 Kbps
    Channel(s)                       : 2 channels
    Channel positions                : L R
    Sampling rate                    : 48.0 KHz
    Video delay                      : 2s 800ms
    Stream size                      : 115 MiB (13%)
    Title                            : RedHeart
    Language                         : Hindi
    Audio #2
    ID                               : 3
    Format                           : AC-3
    Format/Info                      : Audio Coding 3
    Codec ID                         : A_AC3
    Duration                         : 2h 5mn
    Bit rate mode                    : Constant
    Bit rate                         : 128 Kbps
    Channel(s)                       : 5 channels
    Channel positions                : Front: L C R, Surround: L R
    Sampling rate                    : 48.0 KHz
    Stream size                      : 115 MiB (13%)
    Title                            : RedHeart
    Language                         : English








    Code:
    http://www.fileserve.com/file/NGZDVJg
    http://www.fileserve.com/file/RaVXUw9
    http://www.fileserve.com/file/28cTW88
    http://www.fileserve.com/file/DavSBEh
    http://www.fileserve.com/file/wxkM55B

 

 

Posting Permissions

  • You may not post new threads
  • You may not post replies
  • You may not post attachments
  • You may not edit your posts
  •