Results 1 to 1 of 1
  1. #1
    Banned www.desirulez.net
    Join Date
    Jun 2011
    Posts
    229

    T

    Post Megamind.2010.3D.Anaglyph[Red/Cyan].BRRiP.MP3.XviD -=![R!pGuru]!=-

    Follow us on Social Media









    Megamind.2010.3D.Anaglyph[Red/Cyan].BRRiP.MP3.XviD -=![R!pGuru]!=-



    Code:
    General
    Complete name                    : S:\-=![R!pGuru]!=-\Megamind.2010.3DAnaglyph.BRRiP.MP3.XviD -=![R!pGuru]!=- TDT\Megamind.2010.3DAnaglyph.BRRiP.MP3.XviD -=![R!pGuru]!=- TDT.avi
    Format                           : AVI
    Format/Info                      : Audio Video Interleave
    Format profile                   : OpenDML
    File size                        : 1.12 GiB
    Duration                         : 1h 35mn
    Overall bit rate                 : 1 682 Kbps
    
    
    Video
    ID                               : 0
    Format                           : MPEG-4 Visual
    Format profile                   : Advanced [email protected]
    Format settings, BVOP            : Yes
    Format settings, QPel            : No
    Format settings, GMC             : No warppoints
    Format settings, Matrix          : Default (H.263)
    Muxing mode                      : Packed bitstream
    Codec ID                         : XVID
    Codec ID/Hint                    : XviD
    Duration                         : 1h 35mn
    Bit rate                         : 1 590 Kbps
    Width                            : 720 pixels
    Height                           : 304 pixels
    Display aspect ratio             : 2.35:1
    Frame rate                       : 23.976 fps
    Color space                      : YUV
    Chroma subsampling               : 4:2:0
    Bit depth                        : 8 bits
    Scan type                        : Progressive
    Bits/(Pixel*Frame)               : 0.303
    Stream size                      : 1.06 GiB (95%)
    Writing library                  : XviD 1.1.2 (UTC 2006-11-01)
    
    Audio
    ID                               : 1
    Format                           : MPEG Audio
    Format version                   : Version 1
    Format profile                   : Layer 3
    Mode                             : Joint stereo
    Mode extension                   : MS Stereo
    Codec ID                         : 55
    Codec ID/Hint                    : MP3
    Duration                         : 1h 35mn
    Bit rate mode                    : Variable
    Bit rate                         : 83.3 Kbps
    Channel(s)                       : 2 channels
    Sampling rate                    : 48.0 KHz
    Stream size                      : 57.0 MiB (5%)











    USE THESE TYPE OF GLASSES






    Depositfiles
    Code:
    http://depositfiles.com/files/8dnlymw0s
    Fileserve
    Code:
    http://www.fileserve.com/file/9Kudpck
    Wupload
    Code:
    http://www.wupload.com/file/44228208/Megamind.2010.3DAnaglyph.BRRiP.MP3.XviD_-=![R!pGuru]!=-_TDT.avi


    Depositfiles
    Code:
    http://depositfiles.com/files/y3g0pni4w
    http://depositfiles.com/files/6ygi99q01
    http://depositfiles.com/files/lfr6d1yp3
    http://depositfiles.com/files/jtgdkajl7
    http://depositfiles.com/files/563k5d19h
    http://depositfiles.com/files/9xhqdgd9i
    Wupload
    Code:
    http://www.wupload.com/file/44263177/Megamind.2010.3DAnaglyph.BRRiP.MP3.XviD_-=![R!pGuru]!=-_TDT.avi.001
    http://www.wupload.com/file/44263180/Megamind.2010.3DAnaglyph.BRRiP.MP3.XviD_-=![R!pGuru]!=-_TDT.avi.002
    http://www.wupload.com/file/44263364/Megamind.2010.3DAnaglyph.BRRiP.MP3.XviD_-=![R!pGuru]!=-_TDT.avi.003
    http://www.wupload.com/file/44263401/Megamind.2010.3DAnaglyph.BRRiP.MP3.XviD_-=![R!pGuru]!=-_TDT.avi.004
    http://www.wupload.com/file/44263454/Megamind.2010.3DAnaglyph.BRRiP.MP3.XviD_-=![R!pGuru]!=-_TDT.avi.005
    http://www.wupload.com/file/44263456/Megamind.2010.3DAnaglyph.BRRiP.MP3.XviD_-=![R!pGuru]!=-_TDT.avi.006


 

 

Posting Permissions

  • You may not post new threads
  • You may not post replies
  • You may not post attachments
  • You may not edit your posts
  •