Results 1 to 1 of 1
  1. #1
    Banned www.desirulez.net
    Join Date
    Jan 2010
    Posts
    2,522

    T

    Thumbs up The Kingdom (2007) HDRip XviD[HinDi-Eng]

    Follow us on Social Media







    The Kingdom (2007) HDRip XviD[HinDi-Eng]






    SoURcE: Junkyard (My OWN)
    SiZE: 2.7 GiB
    iMDB: http://www.imdb.com/title/tt0431197/
    RATiNG: 7.1/10 (48,621 votes)
    RElEAsE DaTE: 28 September 2007 UsA
    AUDIO: Hindi, English [Arabic (In Few Scenes)]
    SubTiTles: English, English [Hard Coded for Arabic Lang.]
    RiP Date: 2011.01.19
    Runtime: 01:50:20
    Taglines: An elite FBI team sent to find a killer in Saudi Arabia. Now they have become the target
    EnCoDeR: ME (SnowDoN aka Vickey007
    Sample: WiTh ToRReNt



    Director: Peter Berg

    Genres:
    Action | Drama | Thriller







    After a terrorist attack to an American housing compound in Riyadh, Saudi Arabia, where families and the spy Francis Manner are murdered, FBI agent Ronald Fleury blackmails the South Arabian consul to get five days of investigation in the location. He travels with agent Grant Sykes, Janet Mayes and Adam Leavitt to revenge their friend and try to find the responsible for the bombing. The agents find all sorts of difficulties in their investigation, but they are supported by Colonel Faris Al Ghazi that advises the team how to act in a hostile environment.







    Jamie Foxx ... Ronald Fleury
    Chris Cooper ... Grant Sykes
    Jennifer Garner ... Janet Mayes
    Jason Bateman ... Adam Leavitt
    Ashraf Barhom ... Colonel Faris Al Ghazi
    Ali Suliman ... Sergeant Haytham
    Jeremy Piven ... Damon Schmidt
    Richard Jenkins ... Robert Grace
    Tim McGraw ... Aaron Jackson
    Kyle Chandler ... Francis Manner
    Frances Fisher ... Elaine Flowers
    Danny Huston ... Gideon Young
    Kelly AuCoin ... Ellis Leach
    Anna Deavere Smith ... Maricella Canavesio
    Minka Kelly ... Miss Ross








    Format : AVI
    Format/Info : Audio Video Interleave
    Format profile : OpenDML
    File size : 2.67 GiB
    Duration : 1h 50mn
    Overall bit rate : 3 465 Kbps
    Writing application : AVI-Mux GUI 1.17.8, Aug 30 2008 12:36:58

    Video
    ID : 0
    Format : MPEG-4 Visual
    Format profile : Advanced [email protected]
    Format settings, BVOP : Yes
    Format settings, QPel : No
    Format settings, GMC : No warppoints
    Format settings, Matrix : Default (H.263)
    Codec ID : XVID
    Codec ID/Hint : XviD
    Duration : 1h 50mn
    Bit rate : 2 894 Kbps
    Width : 1 280 pixels
    Height : 544 pixels
    Display aspect ratio : 2.35:1
    Frame rate : 23.976 fps
    Resolution : 8 bits
    Colorimetry : 4:2:0
    Scan type : Progressive
    Bits/(Pixel*Frame) : 0.173
    Stream size : 2.23 GiB (84%)
    Title : The.Kingdom.2007.HDRip.XviD[HinDi-Eng]-[SnowDoN-!!!v]
    Writing library : XviD 1.2.0.dev47 (UTC 2006-11-01)

    Audio #1
    ID : 1
    Format : MPEG Audio
    Format version : Version 1
    Format profile : Layer 3
    Format_Settings_Mode : Joint stereo
    Format_Settings_ModeExtension : MS Stereo
    Codec ID : 55
    Codec ID/Hint : MP3
    Duration : 1h 50mn
    Bit rate mode : Constant
    Bit rate : 112 Kbps
    Channel(s) : 2 channels
    Sampling rate : 44.1 KHz
    Stream size : 88.4 MiB (3%)
    Alignment : Aligned on interleaves
    Interleave, duration : 26 ms (0.63 video frame)
    Interleave, preload duration : 182 ms
    Title : The.Kingdom.2007.HDRip.XviD[HinDi-Eng]-[SnowDoN-!!!v].Hindi

    Audio #2
    ID : 2
    Format : AC-3
    Format/Info : Audio Coding 3
    Codec ID : 2000
    Duration : 1h 50mn
    Bit rate mode : Constant
    Bit rate : 448 Kbps
    Channel(s) : 6 channels
    Channel positions : Front: L C R, Surround: L R, LFE
    Sampling rate : 48.0 KHz
    Stream size : 354 MiB (13%)
    Alignment : Aligned on interleaves
    Interleave, duration : 64 ms (1.53 video frames)
    Interleave, preload duration : 192 ms
















    Code:
    http://www.filesonic.com/file/61726208/The.Kingdom.2007.HDRip.XviD.HinDi-Eng.By.Kamran444.avi.001
    http://www.filesonic.com/file/61726588/The.Kingdom.2007.HDRip.XviD.HinDi-Eng.By.Kamran444.avi.002
    http://www.filesonic.com/file/61727286/The.Kingdom.2007.HDRip.XviD.HinDi-Eng.By.Kamran444.avi.003
    http://www.filesonic.com/file/61727086/The.Kingdom.2007.HDRip.XviD.HinDi-Eng.By.Kamran444.avi.004
    http://www.filesonic.com/file/61726884/The.Kingdom.2007.HDRip.XviD.HinDi-Eng.By.Kamran444.avi.004
    http://www.filesonic.com/file/61727200/The.Kingdom.2007.HDRip.XviD.HinDi-Eng.By.Kamran444.avi.005
    http://www.filesonic.com/file/61726910/The.Kingdom.2007.HDRip.XviD.HinDi-Eng.By.Kamran444.avi.006
    http://www.filesonic.com/file/61727304/The.Kingdom.2007.HDRip.XviD.HinDi-Eng.By.Kamran444.avi.007
    OR


    Code:
    http://www.fileserve.com/file/KGFt2d9/The.Kingdom.2007.HDRip.XviD.HinDi-Eng.By.Kamran444.avi.001
    http://www.fileserve.com/file/N23NsEY/The.Kingdom.2007.HDRip.XviD.HinDi-Eng.By.Kamran444.avi.002
    http://www.fileserve.com/file/Kxz8sa2/The.Kingdom.2007.HDRip.XviD.HinDi-Eng.By.Kamran444.avi.003
    http://www.fileserve.com/file/VUwr3qA/The.Kingdom.2007.HDRip.XviD.HinDi-Eng.By.Kamran444.avi.004
    http://www.fileserve.com/file/Eup4hKt/The.Kingdom.2007.HDRip.XviD.HinDi-Eng.By.Kamran444.avi.004
    http://www.fileserve.com/file/PJvDCdC/The.Kingdom.2007.HDRip.XviD.HinDi-Eng.By.Kamran444.avi.005
    http://www.fileserve.com/file/3QxXcP7/The.Kingdom.2007.HDRip.XviD.HinDi-Eng.By.Kamran444.avi.006
    http://www.fileserve.com/file/XTv3Cxk/The.Kingdom.2007.HDRip.XviD.HinDi-Eng.By.Kamran444.avi.007





    Subs::

    Code:
    http://www.fileserve.com/file/Np6NkvB/The.Kingdom.2007.HDRip.XviD.HinDi-Eng.By.Kamran444.srt
    
    http://www.filesonic.com/file/61229013/The.Kingdom.2007.HDRip.XviD.HinDi-Eng.By.Kamran444.srt



 

 

Posting Permissions

  • You may not post new threads
  • You may not post replies
  • You may not post attachments
  • You may not edit your posts
  •