Results 1 to 1 of 1
  1. #1
    Banned www.desirulez.net
    Join Date
    Jan 2010
    Posts
    2,522

    T

    Default The Incredible Hulk (2008) - 645MB m-HD 480p AC3 Hindi BHATTI87

    Follow us on Social Media







    The Incredible Hulk (2008) - 645MB m-HD 480p AC3 Hindi BHATTI87



    The Incredible Hulk (2008) | m-HD | 480p | AC3 | Hindi | BHATTI87

    General
    Unique ID : 198041780119779214060169819104169798361 (0x94FD759EFD6AFD20918C1B346C4DAAD9)
    Complete name : H:\***********\The Incredible Hulk (2008) m-HD 480p AC3 Hindi BHATTI87\The Incredible Hulk (2008) m-HD 480p AC3 Hindi BHATTI87.mkv
    Format : Matroska
    File size : 645 MiB
    Duration : 1h 47mn
    Overall bit rate : 838 Kbps
    Encoded date : UTC 2011-08-28 19:53:51
    Writing application : mkvmerge v4.8.0 ('I Got The...') built on May 24 2011 03:12:58
    Writing library : libebml v1.2.0 + libmatroska v1.1.0

    Video
    ID : 1
    Format : AVC
    Format/Info : Advanced Video Codec
    Format profile : [email protected]
    Format settings, CABAC : Yes
    Format settings, ReFrames : 5 frames
    Codec ID : V_MPEG4/ISO/AVC
    Duration : 1h 47mn
    Bit rate : 709 Kbps
    Width : 848 pixels
    Height : 368 pixels
    Display aspect ratio : 2.35:1
    Frame rate : 23.976 fps
    Color space : YUV
    Chroma subsampling : 4:2:0
    Bit depth : 8 bits
    Scan type : Progressive
    Bits/(Pixel*Frame) : 0.095
    Stream size : 534 MiB (83%)
    Writing library : x264 core 115 r1995 c1e60b9
    Encoding settings : cabac=1 / ref=5 / deblock=1:-1:-1 / analyse=0x3:0x113 / me=umh / subme=8 / psy=1 / psy_rd=1.00:0.00 / mixed_ref=1 / me_range=24 / chroma_me=1 / trellis=2 / 8x8!!!=1 / cqm=0 / deadzone=21,11 / fast_pskip=1 / chroma_qp_offset=-2 / threads=3 / sliced_threads=0 / nr=0 / decimate=1 / interlaced=0 / bluray_compat=0 / constrained_intra=0 / bframes=3 / b_pyramid=2 / b_adapt=2 / b_bias=0 / direct=3 / weightb=1 / open_gop=0 / weightp=2 / keyint=250 / keyint_min=23 / scenecut=40 / intra_refresh=0 / rc_lookahead=50 / rc=2pass / mbtree=1 / bitrate=709 / ratetol=1.0 / qcomp=0.60 / qpmin=10 / qpmax=69 / qpstep=4 / cplxblur=20.0 / qblur=0.5 / ip_ratio=1.40 / aq=1:1.00

    Audio
    ID : 2
    Format : AC-3
    Format/Info : Audio Coding 3
    Mode extension : CM (complete main)
    Codec ID : A_AC3
    Duration : 1h 47mn
    Bit rate mode : Constant
    Bit rate : 128 Kbps
    Channel(s) : 2 channels
    Channel positions : Front: L R
    Sampling rate : 44.1 KHz
    Bit depth : 16 bits
    Compression mode : Lossy
    Stream size : 98.5 MiB (15%)


















    Code:
    http://www.filesonic.com/file/1963437961/The_Incredible_Hulk_(2008)__m-HD__480p__AC3__Hindi__BHATTI87.mkv

    Code:
    http://www.wupload.com/file/166498966/The_Incredible_Hulk_(2008)__m-HD__480p__AC3__Hindi__BHATTI87.mkv

    Code:
    http://www.fileserve.com/file/HsGRYNr




 

 

Posting Permissions

  • You may not post new threads
  • You may not post replies
  • You may not post attachments
  • You may not edit your posts
  •