Results 1 to 1 of 1
  1. #1
    Administrators www.desirulez.net
    Join Date
    Mar 2010
    Posts
    9,872

    T

    Default Hotel Rwanda 2004 Brrip Dual Audio [Hin-Eng]

    Follow us on Social Media



















    Hotel Rwanda (2004) - IMDb

    General
    Complete name : F:\EXDESI.COM\Hotel Rwanda 2004 BRRip Dual Audio [Hin-Eng] by imkhan -=[TDT]=-\Hotel Rwanda 2004 BRRip Dual Audio [Hin-Eng] by imkhan -=[TDT]=-.mkv
    Format : Matroska
    File size : 554 MiB
    Duration : 1h 56mn [end credit cut]
    Overall bit rate : 666 Kbps
    Movie name : Hotel Rwanda 2004 BRRip Dual Audio [Hin-Eng] by imkhan -=[TDT]=-
    Encoded date : UTC 2011-03-17 16:18:50
    Writing application : mkvmerge v4.2.0 ('No Talking') built on Jul 28 2010 18:38:23
    Writing library : libebml v1.0.0 + libmatroska v1.0.0

    Video
    ID : 1
    Format : AVC
    Format/Info : Advanced Video Codec
    Format profile : [email protected]
    Format settings, CABAC : Yes
    Format settings, ReFrames : 3 frames
    Muxing mode : Container [email protected]
    Codec ID : V_MPEG4/ISO/AVC
    Duration : 1h 56mn
    Bit rate : 525 Kbps
    Nominal bit rate : 528 Kbps
    Width : 688 pixels
    Height : 384 pixels
    Display aspect ratio : 16:9
    Frame rate : 23.976 fps
    Resolution : 24 bits
    Colorimetry : 4:2:0
    Scan type : Progressive
    Bits/(Pixel*Frame) : 0.083
    Stream size : 436 MiB (79%)
    Title : imkhan
    Writing library : x264 core 58 svn-736bm
    Encoding settings : cabac=1 / ref=1 / deblock=1:-2:-1 / analyse=0x3:0x113 / me=hex / subme=5 / brdo=0 / mixed_ref=0 / me_range=8 / chroma_me=1 / trellis=0 / 8x8dct=1 / cqm=0 / deadzone=21,11 / chroma_qp_offset=0 / threads=8 / nr=0 / decimate=1 / mbaff=0 / bframes=16 / b_pyramid=1 / b_adapt=1 / b_bias=0 / direct=3 / wpredb=1 / bime=0 / keyint=250 / keyint_min=25 / scenecut=40(pre) / rc=2pass / bitrate=528 / ratetol=1.0 / rceq='blurCplx^(1-qComp)' / qcomp=0.60 / qpmin=10 / qpmax=51 / qpstep=4 / cplxblur=20.0 / qblur=0.5 / ip_ratio=1.40 / pb_ratio=1.30
    Language : Hindi

    Audio #1
    ID : 2
    Format : MPEG Audio
    Format version : Version 2
    Format profile : Layer 3
    Codec ID : A_MPEG/L3
    Codec ID/Hint : MP3
    Duration : 1h 56mn
    Bit rate mode : Constant
    Bit rate : 64.0 Kbps
    Channel(s) : 2 channels
    Sampling rate : 22.05 KHz
    Resolution : 16 bits
    Stream size : 53.2 MiB (10%)
    Title : imkhan
    Writing library : LAME3.98.2
    Language : Hindi

    Audio #2
    ID : 3
    Format : MPEG Audio
    Format version : Version 2
    Format profile : Layer 3
    Codec ID : A_MPEG/L3
    Codec ID/Hint : MP3
    Duration : 1h 56mn
    Bit rate mode : Constant
    Bit rate : 64.0 Kbps
    Channel(s) : 2 channels
    Sampling rate : 22.05 KHz
    Resolution : 16 bits
    Stream size : 53.2 MiB (10%)
    Title : imkhan
    Writing library : LAME3.98.2

    Download Link


    Code:
    http://www.duckload.com/dl/Vm9D2

    Watch online

    Code:
    http://www.duckload.com/play/EC0B19FEBD36858E

    100% Resume Link. u will get your full speed. with 7 Server



 

 

Posting Permissions

  • You may not post new threads
  • You may not post replies
  • You may not post attachments
  • You may not edit your posts
  •