Results 1 to 1 of 1
  1. #1
    Super Member www.desirulez.net
    Join Date
    Oct 2010
    Posts
    181

    T

    Default Han**** DVDRip in Hindi

    Follow us on Social Media







    Han**** DVDRip in Hindi


    Code:
    Format                           : Matroska
    File size                        : 817 MiB
    Duration                         : 1h 32mn
    Overall bit rate                 : 1 238 Kbps
    Writing application              : AVI-Mux GUI 1.17.7, Aug  8 2006  20:59:17
    Writing library                  : matroska muxer by Alexander Noe, build date Aug  8 2006
    
    Video
    ID                               : 1
    Format                           : MPEG-4 Visual
    Format profile                   : Advanced [email protected]
    Format settings, BVOP            : Yes
    Format settings, QPel            : No
    Format settings, GMC             : No warppoints
    Format settings, Matrix          : Default (H.263)
    Codec ID                         : DX50
    Codec ID/Hint                    : DivX 5
    Duration                         : 1h 32mn
    Bit rate                         : 905 Kbps
    Width                            : 692 pixels
    Height                           : 284 pixels
    Display aspect ratio             : 2.40:1
    Frame rate                       : 23.976 fps
    Color space                      : YUV
    Chroma subsampling               : 4:2:0
    Bit depth                        : 8 bits
    Scan type                        : Progressive
    Bits/(Pixel*Frame)               : 0.192
    Stream size                      : 598 MiB (73%)
    Writing library                  : XviD 1.0.3 (UTC 2004-12-20)
    
    Audio #1
    ID                               : 2
    Format                           : MPEG Audio
    Format version                   : Version 1
    Format profile                   : Layer 3
    Codec ID                         : A_MPEG/L3
    Codec ID/Hint                    : MP3
    Duration                         : 1h 32mn
    Bit rate mode                    : Constant
    Bit rate                         : 128 Kbps
    Channel(s)                       : 2 channels
    Sampling rate                    : 48.0 KHz
    Stream size                      : 84.5 MiB (10%)
    Title                            : English
    
    Audio #2
    ID                               : 3
    Format                           : MPEG Audio
    Format version                   : Version 1
    Format profile                   : Layer 3
    Mode                             : Joint stereo
    Codec ID                         : A_MPEG/L3
    Codec ID/Hint                    : MP3
    Duration                         : 1h 32mn
    Bit rate mode                    : Variable
    Bit rate                         : 180 Kbps
    Channel(s)                       : 2 channels
    Sampling rate                    : 44.1 KHz
    Stream size                      : 119 MiB (15%)
    Title                            : Hindi
    Language                         :  / Hindi







    Code:
    http://www.fileserve.com/file/vPvGtgc
    http://www.fileserve.com/file/Kfjr8ba
    http://www.fileserve.com/file/QNaycU9
    http://www.fileserve.com/file/bFWGJXk
    http://www.fileserve.com/file/SPfEwPA
    http://www.fileserve.com/file/xzRvgXg
    http://www.fileserve.com/file/JkDt8gw
    http://www.fileserve.com/file/MahcjRb
    http://www.fileserve.com/file/q6SxArG
    Just Say Thanks

 

 

Posting Permissions

  • You may not post new threads
  • You may not post replies
  • You may not post attachments
  • You may not edit your posts
  •