Results 1 to 1 of 1
  1. #1
    Super Member www.desirulez.net
    Join Date
    Oct 2010
    Posts
    181

    T

    Default Future X-Cops 2010 dual audio

    Follow us on Social Media







    Future X-Cops 2010 dual audio


    General

    Complete name : Future X-Cops 2010.mkv
    Format : Matroska
    File size : 564 MiB
    Duration : 1h 37mn
    Overall bit rate : 811 Kbps
    Writing application : Lavf52.13.0
    Writing library : Lavf52.13.0

    Video
    ID : 1
    Format : MPEG-4 Visual
    Format profile : [email protected]
    Format settings, BVOP : No
    Format settings, QPel : No
    Format settings, GMC : No warppoints
    Format settings, Matrix : Default (H.263)
    Codec ID : V_MPEG4/ISO/ASP
    Codec ID/Info : Advanced Simple Profile
    Duration : 1h 37mn
    Bit rate : 747 Kbps
    Width : 352 pixels
    Height : 288 pixels
    Display aspect ratio : 1.222
    Frame rate mode : Constant
    Frame rate : 25.000 fps
    Standard : PAL
    Color space : YUV
    Chroma subsampling : 4:2:0
    Bit depth : 8 bits
    Scan type : Progressive
    Compression mode : Lossy
    Bits/(Pixel*Frame) : 0.295
    Stream size : 519 MiB (92%)
    Writing library : Lavc51.54.0
    Language : English

    Audio
    ID : 2
    Format : MPEG Audio
    Format version : Version 2
    Format profile : Layer 3
    Mode : Joint stereo
    Mode extension : MS Stereo
    Codec ID : A_MPEG/L3
    Codec ID/Hint : MP3
    Duration : 1h 37mn
    Bit rate mode : Constant
    Bit rate : 48.0 Kbps
    Channel(s) : 2 channels
    Sampling rate : 16.0 KHz
    Compression mode : Lossy
    Stream size : 33.4 MiB (6%)
    Writing library : LAME3.98 (beta)
    Language : English
    screenshot

    Code:
    http://www.fileserve.com/file/Vkx3wfN
    Last edited by badshahpyare; 03-22-2011 at 01:43 PM.

 

 

Posting Permissions

  • You may not post new threads
  • You may not post replies
  • You may not post attachments
  • You may not edit your posts
  •