Results 1 to 1 of 1
  1. #1
    Banned www.desirulez.net
    Join Date
    Jun 2011
    Posts
    229

    T

    Post Flushed Away 2006 Bluray 480p Dual Audio - Henry

    Follow us on Social Media







    Flushed Away 2006 Bluray 480p Dual Audio - Henry




    Format : Matroska
    File size : 451 MiB
    Duration : 1h 13mn
    Overall bit rate : 858 Kbps
    Movie name : Flushed Away
    Encoded date : UTC 2011-07-19 06:24:45
    Writing application : mkvmerge v4.7.0 ('Just Like You Imagined') built on Apr 21 2011 01:13:14
    Writing library : libebml v1.2.0 + libmatroska v1.1.0

    Video
    ID : 1
    Format : AVC
    Format/Info : Advanced Video Codec
    Format profile : [email protected]
    Format settings, CABAC : Yes
    Format settings, ReFrames : 4 frames
    Format settings, GOP : M=1, N=2
    Muxing mode : Header stripping
    Codec ID : V_MPEG4/ISO/AVC
    Duration : 1h 13mn
    Bit rate : 760 Kbps
    Width : 720 pixels
    Height : 400 pixels
    Display aspect ratio : 16:9
    Frame rate : 25.000 fps
    Color space : YUV
    Chroma subsampling : 4:2:0
    Bit depth : 8 bits
    Scan type : Progressive
    Bits/(Pixel*Frame) : 0.106
    Stream size : 391 MiB (87%)
    Title : Ripped By Henry[~KSRR~]
    Writing library : x264

    Audio #1
    ID : 2
    Format : MPEG Audio
    Format version : Version 1
    Format profile : Layer 3
    Mode : Joint stereo
    Mode extension : MS Stereo
    Muxing mode : Header stripping
    Codec ID : A_MPEG/L3
    Codec ID/Hint : MP3
    Duration : 1h 13mn
    Bit rate mode : Constant
    Bit rate : 48.0 Kbps
    Channel(s) : 2 channels
    Sampling rate : 44.1 KHz
    Compression mode : Lossy
    Stream size : 25.2 MiB (6%)
    Title : Henry[~KSRR~]
    Language : English

    Audio #2
    ID : 3
    Format : MPEG Audio
    Format version : Version 1
    Format profile : Layer 3
    Mode : Joint stereo
    Mode extension : MS Stereo
    Muxing mode : Header stripping
    Codec ID : A_MPEG/L3
    Codec ID/Hint : MP3
    Duration : 1h 13mn
    Bit rate mode : Constant
    Bit rate : 48.0 Kbps
    Channel(s) : 2 channels
    Sampling rate : 44.1 KHz
    Compression mode : Lossy
    Stream size : 25.2 MiB (6%)
    Title : Henry[~KSRR~]
    Language : Hindi
















    Code:
    http://depositfiles.com/files/kbgub4yju

    Code:
    http://www.fileserve.com/file/aTFE58f

    Code:
    http://www.filesonic.in/file/1490595224/Flushed%20Away.mkv

    Code:
    http://www.wupload.com/file/63050190/Flushed_Away.mkv



 

 

Posting Permissions

  • You may not post new threads
  • You may not post replies
  • You may not post attachments
  • You may not edit your posts
  •