Results 1 to 1 of 1
  1. #1
    Banned www.desirulez.net
    Join Date
    Apr 2011
    Posts
    100

    T

    Post Fast And Furious 5 (2011) [Hindi Dubbed]1Cd PDvdRip XviD

    Follow us on Social Media









    Fast And Furious 5 (2011) [Hindi Dubbed]1Cd PDvdRip XviD




    General
    Complete name : Fast And Furious 5 (2011) [Hindi Dubbed]1Cd PDvdRip XviD
    Format : MPEG-PS
    File size : 650 MiB
    Duration : 1h 55mn
    Overall bit rate : 786 Kbps


    Video
    ID : 224 (0xE0)
    Format : MPEG Video
    Format version : Version 2
    Format settings, BVOP : Yes
    Format settings, Matrix : Default
    Duration : 1h 55mn
    Bit rate mode : Constant
    Bit rate : 706 Kbps
    Nominal bit rate : 1 150 Kbps
    Width : 352 pixels
    Height : 288 pixels
    Display aspect ratio : 1.222
    Frame rate : 25.000 fps
    Standard : PAL
    Color space : YUV
    Bit depth : 8 bits
    Scan type : Progressive
    Compression mode : Lossy
    Bits/(Pixel*Frame) : 0.279
    Stream size : 584 MiB (90%)


    Audio
    ID : 192 (0xC0)
    Format : MPEG Audio
    Format version : Version 1
    Format profile : Layer 2
    Duration : 1h 55mn
    Bit rate mode : Constant
    Bit rate : 64.0 Kbps
    Channel(s) : 2 channels
    Sampling rate : 48.0 KHz
    Compression mode : Lossy
    Stream size : 52.9 MiB (8%)









    ~*Single Links*~
    Code:
    http://www.fileserve.com/file/M4hKakN
    ~*Short Links*~
    Code:
    http://www.fileserve.com/file/Er6Neej
    http://www.fileserve.com/file/QaDFAmy
    http://www.fileserve.com/file/qkvfpt6
    http://www.fileserve.com/file/vtApCx6


    ~*Single Links*~
    Code:
    http://www.duckload.com/download/5549994/Fast.Five.2011._Hindi_Dubbed_
    ~*Short Links*~
    Code:
    http://www.duckload.com/download/5550286/Fast.Five.2011._Hindi_Dubbed_.001
    http://www.duckload.com/download/5550294/Fast.Five.2011._Hindi_Dubbed_.002
    http://www.duckload.com/download/5550265/Fast.Five.2011._Hindi_Dubbed_.003
    http://www.duckload.com/download/5550277/Fast.Five.2011._Hindi_Dubbed_.004


 

 

Posting Permissions

  • You may not post new threads
  • You may not post replies
  • You may not post attachments
  • You may not edit your posts
  •