Results 1 to 3 of 3
  1. #1
    dR Rockers www.desirulez.net
    Join Date
    Sep 2011
    Posts
    248

    T

    Post District 9 (Hindi) - Blu-Ray -720p~JAGJIT639~KHARAY

    Follow us on Social Media








    District 9 (Hindi) - Blu-Ray -720p~JAGJIT639~KHARAY




    General
    General

    Format : Matroska
    Format version : Version 2
    File size : 985 MiB
    Duration : 1h 52mn
    Overall bit rate : 1 226 Kbps
    Encoded date : UTC 2011-10-23 08:20:58
    Writing application : mkvmerge v4.3.0 ('Escape from the Island') built on Sep 5 2010 10:30:51
    Writing library : libebml v1.0.0 + libmatroska v1.0.0

    Video
    ID : 1
    Format : AVC
    Format/Info : Advanced Video Codec
    Format profile : [email protected]
    Format settings, CABAC : Yes
    Format settings, ReFrames : 4 frames
    Muxing mode : Header stripping
    Codec ID : V_MPEG4/ISO/AVC
    Duration : 1h 52mn
    Bit rate : 1 098 Kbps
    Width : 1 280 pixels
    Height : 688 pixels
    Display aspect ratio : 1.860
    Frame rate : 23.976 fps
    Color space : YUV
    Chroma subsampling : 4:2:0
    Bit depth : 8 bits
    Scan type : Progressive
    Bits/(Pixel*Frame) : 0.052
    Stream size : 862 MiB (88%)


    Audio
    ID : 3
    Format : MPEG Audio
    Format version : Version 1
    Format profile : Layer 3
    Mode : Joint stereo
    Muxing mode : Header stripping
    Codec ID : A_MPEG/L3
    Codec ID/Hint : MP3
    Duration : 1h 52mn
    Bit rate mode : Constant
    Bit rate : 128 Kbps
    Channel(s) : 2 channels
    Sampling rate : 48.0 KHz
    Compression mode : Lossy
    Stream size : 103 MiB (10%)
    Title : Hindi Audio -=KSRR=-
    Writing library : LAME3.98r
    Encoding settings : -m j -V 4 -q 2 -lowpass 17 -b 128
    Language : Hindi

    Text
    ID : 2
    Format : UTF-8
    Codec ID : S_TEXT/UTF8
    Codec ID/Info : UTF-8 Plain Text
    Title : English Subtitles -=KSRR=-























    Code:
    http://www.fileserve.com/file/bfqtTN5/District 9 (Hindi) - Blu-Ray -720p~JAGJIT639~KHARAY-=KSRR=-.mkv

    Code:
    http://www.filesonic.com/file/2724909691

    Code:
    http://www.wupload.com/file/1046985211





  2. #2
    New Arrivals
    Join Date
    Oct 2011
    Posts
    2

    T

    Default thankyou

    thankyouverymuch

  3. #3
    New Arrivals
    Join Date
    Oct 2011
    Posts
    4

    T

    Default thankyou

    thanyouverymuch

 

 

Posting Permissions

  • You may not post new threads
  • You may not post replies
  • You may not post attachments
  • You may not edit your posts
  •