Results 1 to 1 of 1
  1. #1
    Banned www.desirulez.net
    Join Date
    Jun 2011
    Posts
    229

    T

    Post Die Hard Trilogy BRRip 720P (Eng+Hindi) 5.1ch

    Follow us on Social Media







    Die Hard Trilogy BRRip 720P (Eng+Hindi) 5.1ch


    Die Hard 1 (1988) BRRip 720P (Eng+Hindi) 5.1






    Complete name : Die Hard 1 (1988) BRRip 720P (Eng+Hindi) 5.1ch-nsh168810.mkv
    Format : Matroska
    File size : 2.32 GiB
    Duration : 2h 12mn
    Overall bit rate : 2 511 Kbps
    Encoded date : UTC 2011-05-15 18:21:28
    Writing application : mkvmerge v4.7.0 ('Just Like You Imagined') built on Apr 21 2011 01:13:14
    Writing library : libebml v1.2.0 + libmatroska v1.1.0





    Die Hard (1988) - IMDb





    Video
    ID : 1
    Format : AVC
    Format/Info : Advanced Video Codec
    Format profile : [email protected]
    Format settings, CABAC : Yes
    Format settings, ReFrames : 3 frames
    Muxing mode : Header stripping
    Codec ID : V_MPEG4/ISO/AVC
    Duration : 2h 12mn
    Nominal bit rate : 1 900 Kbps
    Width : 1 280 pixels
    Height : 544 pixels
    Display aspect ratio : 2.35:1
    Frame rate : 23.976 fps
    Color space : YUV
    Chroma subsampling : 4:2:0
    Bit depth : 8 bits
    Scan type : Progressive
    Bits/(Pixel*Frame) : 0.114
    Writing library : x264 core 68 r1181M 49bf767




    Audio #1
    ID : 2
    Format : AAC
    Format/Info : Advanced Audio Codec
    Format profile : LC
    Codec ID : A_AAC
    Duration : 2h 12mn
    Channel(s) : 6 channels
    Channel positions : Front: L C R, Side: L R, LFE
    Sampling rate : 48.0 KHz
    Compression mode : Lossy
    Title : 5.1
    Language : English




    Audio #2
    ID : 3
    Format : AC-3
    Format/Info : Audio Coding 3
    Mode extension : CM (complete main)
    Muxing mode : Header stripping
    Codec ID : A_AC3
    Duration : 2h 12mn
    Bit rate mode : Constant
    Bit rate : 256 Kbps
    Channel(s) : 6 channels
    Channel positions : Front: L C R, Side: L R, LFE
    Sampling rate : 48.0 KHz
    Bit depth : 16 bits
    Compression mode : Lossy
    Stream size : 242 MiB (10%)
    Title : 5.1- nsh168810
    Language : Hindi












    Code:
    http://www.fileserve.com/file/uSZ4ucF
    
    http://www.filesonic.com/file/1527682294/Die Hard 1 (1988) BRRip 720P (Eng+Hindi) 5.1ch-nsh168810.mkv


    Code:
    http://cramit.in/1r49t06gytc3
    http://cramit.in/ft08mzuoq3la
    http://cramit.in/c0vb7ny7zbr9
    
    http://www.uploadstation.com/file/6TX4khC
    http://www.uploadstation.com/file/4MckuY5
    http://www.uploadstation.com/file/GJudjdz
    Die Hard 2 (1990) BRRip 720P (Eng+Hindi) 5.1







    Complete name : Die Hard 2 (1990) BRRip 720P (Eng+Hindi) 5.1ch-nsh168810.mkv
    Format : Matroska
    File size : 2.31 GiB
    Duration : 2h 3mn
    Overall bit rate : 2 683 Kbps
    Encoded date : UTC 2011-05-15 18:25:58
    Writing application : mkvmerge v4.7.0 ('Just Like You Imagined') built on Apr 21 2011 01:13:14
    Writing library : libebml v1.2.0 + libmatroska v1.1.0





    Die Hard 2 (1990) - IMDb




    Video
    ID : 1
    Format : AVC
    Format/Info : Advanced Video Codec
    Format profile : [email protected]
    Format settings, CABAC : Yes
    Format settings, ReFrames : 3 frames
    Format settings, GOP : N=1
    Muxing mode : Header stripping
    Codec ID : V_MPEG4/ISO/AVC
    Duration : 2h 3mn
    Nominal bit rate : 2 056 Kbps
    Width : 1 280 pixels
    Height : 544 pixels
    Display aspect ratio : 2.35:1
    Frame rate : 23.976 fps
    Color space : YUV
    Chroma subsampling : 4:2:0
    Bit depth : 8 bits
    Scan type : Progressive
    Bits/(Pixel*Frame) : 0.123
    Writing library : x264 core 68 r1181M 49bf767




    Audio #1
    ID : 2
    Format : AAC
    Format/Info : Advanced Audio Codec
    Format profile : LC
    Codec ID : A_AAC
    Duration : 2h 3mn
    Channel(s) : 6 channels
    Channel positions : Front: L C R, Side: L R, LFE
    Sampling rate : 48.0 KHz
    Compression mode : Lossy
    Title : 5.1
    Language : English




    Audio #2
    ID : 3
    Format : AC-3
    Format/Info : Audio Coding 3
    Mode extension : CM (complete main)
    Muxing mode : Header stripping
    Codec ID : A_AC3
    Duration : 2h 3mn
    Bit rate mode : Constant
    Bit rate : 256 Kbps
    Channel(s) : 6 channels
    Channel positions : Front: L C R, Side: L R, LFE
    Sampling rate : 48.0 KHz
    Bit depth : 16 bits
    Compression mode : Lossy
    Stream size : 226 MiB (10%)
    Title : 5.1- nsh168810
    Language : Hindi










    Code:
    http://www.fileserve.com/file/v3VtaDw
    
    http://www.filesonic.com/file/1529679151/Die Hard 2 (1990) BRRip 720P (Eng+Hindi) 5.1ch-nsh168810.mkv



    Code:
    http://cramit.in/6heqvkwtlk71
    http://cramit.in/x2w86920ib48
    http://cramit.in/7ks7r984t8ih
    
    http://www.wupload.com/file/68123253/Die_Hard_2_(1990)_BRRip_720P_(Eng+Hindi)_5.1ch-nsh168810.mkv.001
    http://www.wupload.com/file/68122144/Die_Hard_2_(1990)_BRRip_720P_(Eng+Hindi)_5.1ch-nsh168810.mkv.002
    http://www.wupload.com/file/68122120/Die_Hard_2_(1990)_BRRip_720P_(Eng+Hindi)_5.1ch-nsh168810.mkv.003

    Die Hard 3 - With A Vengeance (1995) BRRip 720P (Eng+Hindi) 5.1ch






    Complete name : Die Hard 3 - With A Vengeance (1995) BRRip 720P (Eng+Hindi) 5.1ch-nsh168810.mkv
    Format : Matroska
    File size : 2.28 GiB
    Duration : 2h 8mn
    Overall bit rate : 2 539 Kbps
    Encoded date : UTC 2011-05-15 18:50:19
    Writing application : mkvmerge v4.7.0 ('Just Like You Imagined') built on Apr 21 2011 01:13:14
    Writing library : libebml v1.2.0 + libmatroska v1.1.0





    Die Hard - hämningslöst (1995) - IMDb




    Video
    ID : 1
    Format : AVC
    Format/Info : Advanced Video Codec
    Format profile : [email protected]
    Format settings, CABAC : Yes
    Format settings, ReFrames : 3 frames
    Format settings, GOP : N=1
    Muxing mode : Header stripping
    Codec ID : V_MPEG4/ISO/AVC
    Duration : 2h 8mn
    Nominal bit rate : 1 915 Kbps
    Width : 1 280 pixels
    Height : 544 pixels
    Display aspect ratio : 2.35:1
    Frame rate : 23.976 fps
    Color space : YUV
    Chroma subsampling : 4:2:0
    Bit depth : 8 bits
    Scan type : Progressive
    Bits/(Pixel*Frame) : 0.115
    Writing library : x264 core 68 r1183M f21daff




    Audio #1
    ID : 2
    Format : AAC
    Format/Info : Advanced Audio Codec
    Format profile : LC
    Codec ID : A_AAC
    Duration : 2h 8mn
    Channel(s) : 6 channels
    Channel positions : Front: L C R, Side: L R, LFE
    Sampling rate : 48.0 KHz
    Compression mode : Lossy
    Title : 5.1
    Language : English




    Audio #2
    ID : 3
    Format : AC-3
    Format/Info : Audio Coding 3
    Mode extension : CM (complete main)
    Muxing mode : Header stripping
    Codec ID : A_AC3
    Duration : 2h 8mn
    Bit rate mode : Constant
    Bit rate : 256 Kbps
    Channel(s) : 6 channels
    Channel positions : Front: L C R, Side: L R, LFE
    Sampling rate : 48.0 KHz
    Bit depth : 16 bits
    Compression mode : Lossy
    Delay relative to video : 21s 800ms
    Stream size : 235 MiB (10%)
    Title : 5.1- nsh168810
    Language : Hindi









    Code:
    http://www.fileserve.com/file/MXeCubT
    
    http://www.filesonic.in/file/1530234441/Die Hard 3 - With A Vengeance (1995) BRRip 720P (Eng+Hindi) 5.1ch-nsh168810.mkv


    Code:
    http://cramit.in/3r68mxxtinlt
    http://cramit.in/id5imptf9i92
    http://cramit.in/bt53qfi226a3
    
    http://www.wupload.com/file/68152066/Die_Hard_3_-_With_A_Vengeance_(1995)_BRRip_720P_(Eng+Hindi)_5.1ch-nsh168810.mkv.001
    http://www.wupload.com/file/68153698/Die_Hard_3_-_With_A_Vengeance_(1995)_BRRip_720P_(Eng+Hindi)_5.1ch-nsh168810.mkv.002
    http://www.wupload.com/file/68152463/Die_Hard_3_-_With_A_Vengeance_(1995)_BRRip_720P_(Eng+Hindi)_5.1ch-nsh168810.mkv.003

 

 

Posting Permissions

  • You may not post new threads
  • You may not post replies
  • You may not post attachments
  • You may not edit your posts
  •