Results 1 to 2 of 2
  1. #1
    Administrators www.desirulez.net
    Join Date
    Mar 2010
    Posts
    9,872

    T

    Default Blades of Glory (2007) [Hindi]

    Follow us on Social Media









    Blades of Glory (2007)








    Code:
    Ripper :- Arihant
    Uploaded :- Arihant
    Ripper Note :- Enjoy this Superb movie in good Quality
    General
    Complete name                    : BLADES OF GLORY HDrip Hindi Dubbed by Arihant.MP4
    Format                           : Matroska
    File size                        : 309 MiB
    Duration                         : 1h 29mn
    Overall bit rate                 : 484 Kbps
    
    
    Video
    ID                               : 1
    Format                           : AVC
    Format/Info                      : Advanced Video Codec
    Format profile                   : [email protected]
    Format settings, CABAC           : Yes
    Format settings, ReFrames        : 8 frames
    Muxing mode                      : Container [email protected]
    Codec ID                         : V_MPEG4/ISO/AVC
    Duration                         : 1h 29mn
    Bit rate                         : 410 Kbps
    Nominal bit rate                 : 404 Kbps
    Width                            : 640 pixels
    Height                           : 352 pixels
    Display aspect ratio             : 16:9
    Frame rate                       : 25.000 fps
    Resolution                       : 8 bits
    Colorimetry                      : 4:2:0
    Scan type                        : Progressive
    Bits/(Pixel*Frame)               : 0.073
    Stream size                      : 262 MiB (85%)
    Title                            : HD-VIDEO BY ARIHANT
    
    Language                         : English
    
    Audio
    ID                               : 2
    Format                           : MPEG Audio
    Format version                   : Version 1
    Format profile                   : Layer 3
    Mode                             : Joint stereo
    Format_Settings_ModeExtension    : MS Stereo
    Codec ID                         : A_MPEG/L3
    Codec ID/Hint                    : MP3
    Duration                         : 1h 29mn
    Bit rate mode                    : Constant
    Bit rate                         : 64.0 Kbps
    Channel(s)                       : 2 channels
    Sampling rate                    : 48.0 KHz
    Video delay                      : 1s 200ms
    Stream size                      : 40.9 MiB (13%)
    Title                            : HINDI AUDIO BY ARIHANT
    Language                         : Hindi
    IMDB                        :http://www.imdb.com/title/tt0445934/










    Code:
    http://hotfile.com/dl/56521665/ca08dd6/blades_of_glory_hdrip_hindi_dubbed.mp4.001.html
    http://hotfile.com/dl/56521769/105a484/blades_of_glory_hdrip_hindi_dubbed.mp4.002.html
    http://hotfile.com/dl/56521771/ffed6dd/blades_of_glory_hdrip_hindi_dubbed.mp4.crc.html
    OR

    Code:
    http://www.fileserve.com/file/dw5McZd/blades_of_glory_hdrip_hindi_dubbed.mp4.001
    http://www.fileserve.com/file/52tjB8A/blades_of_glory_hdrip_hindi_dubbed.mp4.002
    http://www.fileserve.com/file/WkKY24U/blades_of_glory_hdrip_hindi_dubbed.mp4.crc


  2. #2

    Default

    thnks

 

 

Posting Permissions

  • You may not post new threads
  • You may not post replies
  • You may not post attachments
  • You may not edit your posts
  •