Results 1 to 1 of 1
  1. #1
    Banned www.desirulez.net
    Join Date
    Jan 2010
    Posts
    2,522

    T

    Thumbs up Aeon Flux (2005) - [Hindi] - HD-DVDRip -700MB

    Follow us on Social Media







    Aeon Flux (2005) - [Hindi] - HD-DVDRip -700MB





    STORYLiNE:


    The year is 2415. 400 years after a virus wiped out half of the world's population, the people that survived the virus now live in Bragna, a fortified city that is surrounded by a wall isolating the people from the virus infested rest of the world. Living in Bragna City, Aeon Flux, a mysterious female assassin who works for a underground group of rebels led by Handler. Aeon's latest assignment is to assassinate Trevor Goodchild, a member of the council that controls Bragna City. When Aeon's younger sister Una is killed by government agents, Aeon disobeys orders and decides to protect Trevor, and suspects Trevor's brother Oren and the council members are plotting against Trevor. And when Handler learns Aeon failed the mission, Handler orders Aeon to be eliminated, and Aeon must risk everything as she not only protects Trevor, but also uncovers secrets and answers about her mysterious past and the government and all life in Bragna City itself.


    Media Info

    Code:
    General
    Complete name : Aeon Flux (2005) - [Hindi] - HD-DVDRip - [DON] [CBTv].mkv
    Format : Matroska
    File size : 698 MiB
    Duration : 1h 32mn
    Overall bit rate : 1 051 Kbps
    Writing application : AVI-Mux GUI 1.17.8, Aug 30 2008 12:36:58
    Writing library : matroska muxer by Alexander Noe, build date Aug 30 2008
    
    Video
    ID : 1
    Format : AVC
    Format/Info : Advanced Video Codec
    Codec ID : V_MPEG4/ISO/AVC
    Duration : 1h 32mn
    Bit rate : 902 Kbps
    Width : 852 pixels
    Height : 368 pixels
    Display aspect ratio : 2.35:1
    Frame rate : 23.976 fps
    Bits/(Pixel*Frame) : 0.120
    Stream size : 599 MiB (86%)
    Language : English
    
    Audio
    ID : 2
    Format : MPEG Audio
    Format version : Version 1
    Format profile : Layer 3
    Mode : Joint stereo
    Codec ID : A_MPEG/L3
    Codec ID/Hint : MP3
    Duration : 1h 32mn
    Bit rate mode : Constant
    Bit rate : 128 Kbps
    Channel(s) : 2 channels
    Sampling rate : 48.0 KHz
    Video delay : 600ms
    Stream size : 85.0 MiB (12%)
    Title : Ripper DON
    Writing library : LAME3.98
    Language : Hindi














    400MB Links



    Code:
    http://www.fileserve.com/file/9x3yNxX/Aeon.Flux.2005.Hindi.HD-DVDRip.By.Deejam.part1.rar
    http://www.fileserve.com/file/rXNc8PJ/Aeon.Flux.2005.Hindi.HD-DVDRip.By.Deejam.part2.rar

    OR

    Code:
    http://www.filesonic.com/file/69201049/Aeon.Flux.2005.Hindi.HD-DVDRip.By.Deejam.part1.rar
    http://www.filesonic.com/file/69103365/Aeon.Flux.2005.Hindi.HD-DVDRip.By.Deejam.part2.rar
    OR

    Code:
    http://hotfile.com/dl/100431048/ed85ba7/Aeon.Flux.2005.Hindi.HD-DVDRip.By.Deejam.part1.rar.html
    http://hotfile.com/dl/100430761/59cab14/Aeon.Flux.2005.Hindi.HD-DVDRip.By.Deejam.part2.rar.html


 

 

Posting Permissions

  • You may not post new threads
  • You may not post replies
  • You may not post attachments
  • You may not edit your posts
  •