Results 1 to 1 of 1
  1. #1
    Banned www.desirulez.net
    Join Date
    Jun 2011
    Posts
    229

    T

    Post 3 Super Hit Animation Movie in 1 DVD -Deadman[TDT]

    Follow us on Social Media








    3 Super Hit Animation Movie in 1 DVD -Deadman[TDT]



    Code:
    Dragon Hunters 2008 BRrip Hindi Deadman[TDT]
    
    Format                           : Matroska
    File size                        : 551 MiB
    Duration                         : 1h 18mn
    Overall bit rate                 : 980 Kbps
    
    Duration                         : 1h 18mn
    Bit rate                         : 894 Kbps
    Width                            : 720 pixels
    Height                           : 448 pixels
    Display aspect ratio             : 16:9
    Original display aspect ratio    : 1.607
    Frame rate mode                  : Variable
    Frame rate                       : 25.000 fps
    
    Audio
    ID                               : 2
    Format                           : MPEG Audio
    Codec ID/Hint                    : MP3
    Duration                         : 1h 18mn
    Bit rate mode                    : Constant
    Bit rate                         : 64.0 Kbps
    Channel(s)                       : 2 channels
    Sampling rate                    : 22.05 KHz
    Compression mode                 : Lossy
    Delay relative to video          : 9ms
    Stream size                      : 36.0 MiB (7%)
    
    Kung Fu Panda 2008 BRrip 720p Dual-Audio-deadman[TDT]
    
    Format                           : Matroska
    File size                        : 529 MiB
    Duration                         : 1h 32mn
    Overall bit rate                 : 802 Kbps
    
    Nominal bit rate                 : 647 Kbps
    Width                            : 1 280 pixels
    Height                           : 540 pixels
    Display aspect ratio             : 2.35:1
    Original display aspect ratio    : 2.35:1
    Frame rate                       : 23.976 fps
    
    
    
    Audio #1
    ID                               : 2
    Format                           : AAC
    Format/Info                      : Advanced Audio Codec
    Format profile                   : HE-AAC / LC
    Codec ID                         : A_AAC
    Duration                         : 1h 32mn
    Channel(s)                       : 2 channels
    Channel positions                : Front: L R
    Sampling rate                    : 48.0 KHz / 24.0 KHz
    Compression mode                 : Lossy
    Title                            : deadman
    Language                         : English
    
    Audio #2
    ID                               : 3
    Format                           : AC-3
    Codec ID                         : A_AC3
    Duration                         : 1h 32mn
    Bit rate mode                    : Constant
    Bit rate                         : 128 Kbps
    Channel(s)                       : 2 channels
    Channel positions                : Front: L R
    Sampling rate                    : 48.0 KHz
    Bit depth                        : 16 bits
    Compression mode                 : Lossy
    Delay relative to video          : 2s 0ms
    Stream size                      : 84.4 MiB (16%)
    
    The Polar Express 2004 BRRip 720p Dual Audio by Deadman -[TDT]
    
    Format                           : Matroska
    File size                        : 640 MiB
    Duration                         : 1h 31mn
    Overall bit rate                 : 976 Kbps
    
    
    Nominal bit rate                 : 772 Kbps
    Width                            : 1 280 pixels
    Height                           : 544 pixels
    Display aspect ratio             : 2.35:1
    Frame rate                       : 23.976 fps
    
    Audio #1
    ID                               : 2
    Format                           : MPEG Audio
    Format version                   : Version 1
    Format profile                   : Layer 3
    Mode                             : Joint stereo
    Mode extension                   : MS Stereo
    Muxing mode                      : Header stripping
    Codec ID                         : A_MPEG/L3
    Codec ID/Hint                    : MP3
    Duration                         : 1h 31mn
    Bit rate mode                    : Constant
    Bit rate                         : 128 Kbps
    Channel(s)                       : 2 channels
    Sampling rate                    : 44.1 KHz
    Compression mode                 : Lossy
    Stream size                      : 84.0 MiB (13%)
    Title                            : deadman
    Writing library                  : LAME3.98.2
    Language                         : Hindi
    
    Audio #2
    ID                               : 3
    Format                           : AAC
    Format/Info                      : Advanced Audio Codec
    Format profile                   : LC
    Codec ID                         : A_AAC
    Duration                         : 1h 31mn
    Channel(s)                       : 2 channels
    Channel positions                : Front: L R
    Sampling rate                    : 48.0 KHz
    Compression mode                 : Lossy
    Title                            : deadman
    Language                         : English












    Dragon Hunters 2008 BRrip 480p Hindi Deadman[TDT]

    Depositfiles
    Code:
    http://depositfiles.com/files/bzocy0s7o
    Fileserve
    Code:
    http://www.fileserve.com/file/vsu3PgN
    Kung Fu Panda BRrip 2008 720p Dual-Audio-Deadman[TDT]

    Depositfiles
    Code:
    http://depositfiles.com/files/q5aj6n2pv
    Fileserve
    Code:
    http://www.fileserve.com/file/adv6tfq
    The Polar Express 2004 BRRip 720p Dual Audio by Deadman -[TDT]

    Depositfiles
    Code:
    http://depositfiles.com/files/2fmgdw9o9
    Fileserve
    Code:
    http://www.fileserve.com/file/jYuR5Eh




 

 

Posting Permissions

  • You may not post new threads
  • You may not post replies
  • You may not post attachments
  • You may not edit your posts
  •