Results 1 to 1 of 1
  1. #1
    Banned www.desirulez.net
    Join Date
    Sep 2011
    Posts
    239

    T

    Default Raja Hindustani (1996) - 2.20GB - DvdRip - Upscaled - 720P - X264 - Untouch [Team HD]

    Follow us on Social Media







    Raja Hindustani 1996 Dvd Rip Upscaled 720P X264 Untouch AC3 Striker Team HD




    Presents





    Info:



    Code:
    General
    Code:
    Format                           : Matroska
    Format version                   : Version 2
    File size                        : 905 MiB
    Duration                         : 3h 5mn
    Overall bit rate                 : 682 Kbps
    Encoded date                     : UTC 2011-08-27 07:25:27
    Writing application              : mkvmerge v4.8.0 ('I Got The...') built on May 24 2011 03:12:58
    Writing library                  : libebml v1.2.0 + libmatroska v1.1.0
    
    Video
    ID                               : 1
    Format                           : AVC
    Format/Info                      : Advanced Video Codec
    Format profile                   : [email protected]
    Format settings, CABAC           : Yes
    Format settings, ReFrames        : 4 frames
    Muxing mode                      : Header stripping
    Codec ID                         : V_MPEG4/ISO/AVC
    Duration                         : 3h 5mn
    Bit rate                         : 458 Kbps
    Width                            : 720 pixels
    Height                           : 368 pixels
    Display aspect ratio             : 1.957
    Frame rate                       : 29.970 fps
    Color space                      : YUV
    Chroma subsampling               : 4:2:0
    Bit depth                        : 8 bits
    Scan type                        : Progressive
    Bits/(Pixel*Frame)               : 0.058
    Stream size                      : 632 MiB (70%)
    Writing library                  : x264 core 115 r1995 c1e60b9
    Encoding settings                : cabac=1 / ref=3 / deblock=1:-1:-1 / analyse=0x3:0x113 / me=hex / subme=7 / psy=1 / psy_rd=1.00:0.15 / mixed_ref=1 / me_range=16 / chroma_me=1 / trellis=1 / 8x8dct=1 / cqm=0 / deadzone=21,11 / fast_pskip=1 / chroma_qp_offset=-3 / threads=12 / sliced_threads=0 / nr=0 / decimate=1 / interlaced=0 / bluray_compat=0 / constrained_intra=0 / bframes=3 / b_pyramid=2 / b_adapt=1 / b_bias=0 / direct=1 / weightb=1 / open_gop=0 / weightp=2 / keyint=250 / keyint_min=25 / scenecut=40 / intra_refresh=0 / rc_lookahead=40 / rc=2pass / mbtree=1 / bitrate=458 / ratetol=1.0 / qcomp=0.60 / qpmin=0 / qpmax=69 / qpstep=4 / cplxblur=20.0 / qblur=0.5 / ip_ratio=1.40 / aq=1:1.00
    Language                         : English
    
    Audio
    ID                               : 2
    Format                           : AC-3
    Format/Info                      : Audio Coding 3
    Mode extension                   : CM (complete main)
    Muxing mode                      : Header stripping
    Codec ID                         : A_AC3
    Duration                         : 3h 5mn
    Bit rate mode                    : Constant
    Bit rate                         : 192 Kbps
    Channel(s)                       : 2 channels
    Channel positions                : Front: L R
    Sampling rate                    : 48.0 KHz
    Bit depth                        : 16 bits
    Compression mode                 : Lossy
    Stream size                      : 255 MiB (28%)
    Language                         : Hindi

    Screen SnapS















    RiPpers NoTe:

    Enjoy Its TEAM HD!!!

    SINGLE LINK

    Code:
    http://www.filesonic.com/file/1776062204/Raja Hindustani 1996 Dvd Rip Upscaled 720P X264  Untouch AC3 Striker Team HD.mkv

    600MB LINKS


    Code:
    http://www.fileserve.com/file/UzDCDJz/Raja_Hindustani_1996_Dvd_Rip_Upscaled_720P_X264__Untouch_AC3_Striker_Team_HD.mkv.001
    http://www.fileserve.com/file/Uhcq9B8/Raja_Hindustani_1996_Dvd_Rip_Upscaled_720P_X264__Untouch_AC3_Striker_Team_HD.mkv.002
    http://www.fileserve.com/file/6Bs7pZA/Raja_Hindustani_1996_Dvd_Rip_Upscaled_720P_X264__Untouch_AC3_Striker_Team_HD.mkv.003
    http://www.fileserve.com/file/NzC79K3/Raja_Hindustani_1996_Dvd_Rip_Upscaled_720P_X264__Untouch_AC3_Striker_Team_HD.mkv.004
    600MB LINKS

 

 

Posting Permissions

  • You may not post new threads
  • You may not post replies
  • You may not post attachments
  • You may not edit your posts
  •