Results 1 to 1 of 1
  1. #1

    Thumbs up Om Shanti Om 3D bdrip 1080p left right Xvid AC3 [WBZ]

    Follow us on Social Media









    Code:
    This is a 2D to 3D conversion using Side By Side Left/Right Technic.
    
    
    - PC & Mac
    Plays with Stereoscopic Player (Shareware)
    Nvidia Stereoscopic Player (free)
    ArcSoft TotalMedia
    PowerDVD 10 Ultra Mark II
    
    
    - TV
    Compatible with 3D TVs and 3D-Ready TVs that can play SBS (mostly all).
    (Click on 3D button on remote and Chose Side By Side Left / Right when inputing this file)
    
    
    General
    
    3D Specs : 2D to 3D with Side By Side Left-Right Images
    Format : MKV
    File size : 3.73 GiB
    Duration : 2h 49mn
    Overall bit rate : 3161 Kbps
    
    
    VIDEO
    ID : 0
    Format : MPEG-4 Visual
    Format profile : Advanced [email protected]
    Format settings, BVOP : 2
    Format settings, QPel : No
    Format settings, GMC : No warppoints
    Format settings, Matrix : Default (H.263)
    Codec ID : XVID
    Codec ID/Hint : XviD
    Duration : 2h 49mn
    Bit rate : 2 704 Kbps
    Width : 3 840 pixels
    Height : 1 080 pixels
    Display aspect ratio : 3.556
    Frame rate : 23.976 fps
    Color space : YUV
    Chroma subsampling : 4:2:0
    Bit depth : 8 bits
    Scan type : Progressive
    Compression mode : Lossy
    Bits/(Pixel*Frame) : 0.027
    Stream size : 3.19 GiB (86%)
    Writing library : XviD 1.2.1 (UTC 2008-12-04)
    
    
    
    AUDIO
    ID : 1
    Format : AC-3
    Format/Info : Audio Coding 3
    Mode extension : CM (complete main)
    Codec ID : 2000
    Duration : 2h 49mn
    Bit rate mode : Constant
    Bit rate : 448 Kbps
    Channel(s) : 2 channels
    Channel positions : Front: L R
    Sampling rate : 48.0 KHz
    Bit depth : 16 bits
    Compression mode : Lossy
    Stream size : 542 MiB (14%)
    Alignment : Split accross interleaves
    Interleave, duration : 42 ms (1.00 video frame)
    Interleave, preload duration : 500 ms






    Duckload:
    Code:
    http://www.duckload.com/download/5856337/OM_SHANTI_OM_3D_BDRIP_1080P_LR_XVID_AC3_Striker_WBZ.avi
    Fileserve:
    Code:
    http://www.fileserve.com/file/Mc2Aj9V/OM.SHANTI.OM.3D.BDRIP.1080.p.LR.XVID.AC3.Striker.WBZ.by.heavenly95.part1.rar
    http://www.fileserve.com/file/Z7mmwWB/OM.SHANTI.OM.3D.BDRIP.1080.p.LR.XVID.AC3.Striker.WBZ.by.heavenly95.part2.rar
    http://www.fileserve.com/file/zsfxE48/OM.SHANTI.OM.3D.BDRIP.1080.p.LR.XVID.AC3.Striker.WBZ.by.heavenly95.part3.rar
    http://www.fileserve.com/file/ghDxv5B/OM.SHANTI.OM.3D.BDRIP.1080.p.LR.XVID.AC3.Striker.WBZ.by.heavenly95.part4.rar
    http://www.fileserve.com/file/XsjUTWQ/OM.SHANTI.OM.3D.BDRIP.1080.p.LR.XVID.AC3.Striker.WBZ.by.heavenly95.part5.rar
    http://www.fileserve.com/file/NDvzW5K/OM.SHANTI.OM.3D.BDRIP.1080.p.LR.XVID.AC3.Striker.WBZ.by.heavenly95.part6.rar
    http://www.fileserve.com/file/n5jkYze/OM.SHANTI.OM.3D.BDRIP.1080.p.LR.XVID.AC3.Striker.WBZ.by.heavenly95.part7.rar
    http://www.fileserve.com/file/b6KenpH/OM.SHANTI.OM.3D.BDRIP.1080.p.LR.XVID.AC3.Striker.WBZ.by.heavenly95.part8.rar
    Filesonic:
    Code:
    http://www.filesonic.com/file/1050590984/OM.SHANTI.OM.3D.BDRIP.1080.p.LR.XVID.AC3.Striker.WBZ.by.heavenly95.part1.rar
    http://www.filesonic.com/file/1050591044/OM.SHANTI.OM.3D.BDRIP.1080.p.LR.XVID.AC3.Striker.WBZ.by.heavenly95.part2.rar
    http://www.filesonic.com/file/1050593234/OM.SHANTI.OM.3D.BDRIP.1080.p.LR.XVID.AC3.Striker.WBZ.by.heavenly95.part3.rar
    http://www.filesonic.com/file/1050593154/OM.SHANTI.OM.3D.BDRIP.1080.p.LR.XVID.AC3.Striker.WBZ.by.heavenly95.part4.rar
    http://www.filesonic.com/file/1050593204/OM.SHANTI.OM.3D.BDRIP.1080.p.LR.XVID.AC3.Striker.WBZ.by.heavenly95.part5.rar
    http://www.filesonic.com/file/1050593274/OM.SHANTI.OM.3D.BDRIP.1080.p.LR.XVID.AC3.Striker.WBZ.by.heavenly95.part6.rar
    http://www.filesonic.com/file/1050593394/OM.SHANTI.OM.3D.BDRIP.1080.p.LR.XVID.AC3.Striker.WBZ.by.heavenly95.part7.rar
    http://www.filesonic.com/file/1050586754/OM.SHANTI.OM.3D.BDRIP.1080.p.LR.XVID.AC3.Striker.WBZ.by.heavenly95.part8.rar
    Netload:
    Code:
    http://www.netload.in/dateiJKVaaHD0pu/OM.SHANTI.OM.3D.BDRIP.1080.p.LR.XVID.AC3.Striker.WBZ.by.heavenly95.part1.rar.htm
    http://www.netload.in/dateiVmRlPt7F5L/OM.SHANTI.OM.3D.BDRIP.1080.p.LR.XVID.AC3.Striker.WBZ.by.heavenly95.part2.rar.htm
    http://www.netload.in/dateiMncXJnva16/OM.SHANTI.OM.3D.BDRIP.1080.p.LR.XVID.AC3.Striker.WBZ.by.heavenly95.part3.rar.htm
    http://www.netload.in/dateiYazrTtkllL/OM.SHANTI.OM.3D.BDRIP.1080.p.LR.XVID.AC3.Striker.WBZ.by.heavenly95.part4.rar.htm
    http://www.netload.in/dateiyvvEOIwU5j/OM.SHANTI.OM.3D.BDRIP.1080.p.LR.XVID.AC3.Striker.WBZ.by.heavenly95.part5.rar.htm
    http://www.netload.in/dateipMixll0tAY/OM.SHANTI.OM.3D.BDRIP.1080.p.LR.XVID.AC3.Striker.WBZ.by.heavenly95.part6.rar.htm
    http://www.netload.in/dateiIHyy5QczxB/OM.SHANTI.OM.3D.BDRIP.1080.p.LR.XVID.AC3.Striker.WBZ.by.heavenly95.part7.rar.htm
    http://www.netload.in/datei1R2tcINfq4/OM.SHANTI.OM.3D.BDRIP.1080.p.LR.XVID.AC3.Striker.WBZ.by.heavenly95.part8.rar.htm
    Man is still the most extraordinary computer of all.




 

 

Posting Permissions

  • You may not post new threads
  • You may not post replies
  • You may not post attachments
  • You may not edit your posts
  •