Results 1 to 1 of 1
  1. #1
    dR Contributor www.desirulez.net
    Join Date
    Jan 2011
    Posts
    220

    T

    Thumbs up Golmaal 3 Bluray 720p x264 DTS - FictionBoy

    Follow us on Social Media









    Source: BD50

    General

    Format : Matroska
    File size : 4.37 GiB
    Duration : 2h 20mn



    Video

    Format : AVC
    Format profile : [email protected]
    Format settings, ReFrames : 4 frames
    Duration : 2h 20mn
    Bit rate : 3701 Kbps
    Width : 1 280 pixels
    Height : 576 pixels
    Display aspect ratio : 2.22
    Frame rate : 24.000 fps
    Bits/(Pixel*Frame) : 0.209
    Stream size : 3.54 GiB (81%)
    Writing library : x264 core 114 r1913 5fd3dce


    Audio

    Format : DTS
    Duration : 2h 25mn
    Bit rate mode : Constant
    Bit rate : 755 Kbps
    Channel(s) : 6 channels
    Channel positions : Front: L C R, Side: L R, LFE
    Stream size : 756 MiB (12%)
    Language : Hindi

    Subtitle

    Language : English









    Download Links:-

    Single Link:-

    Code:
    http://www.duckload.com/download/3689629/Golmaal.3.Bluray.x264.720p.DTS-FictionBoy.mkv
    Code:
    http://www.filesonic.com/file/228446241/Golmaal.3.Bluray.x264.720p.DTS-FictionBoy.mkv.001
    http://www.filesonic.com/file/228455911/Golmaal.3.Bluray.x264.720p.DTS-FictionBoy.mkv.002
    http://www.filesonic.com/file/228449931/Golmaal.3.Bluray.x264.720p.DTS-FictionBoy.mkv.003
    http://www.filesonic.com/file/228515111/Golmaal.3.Bluray.x264.720p.DTS-FictionBoy.mkv.004
    http://www.filesonic.com/file/228443601/Golmaal.3.Bluray.x264.720p.DTS-FictionBoy.mkv.005
    Code:
    http://www.duckload.com/download/3689298/Golmaal.3.Bluray.x264.720p.DTS-FictionBoy.mkv.001
    http://www.duckload.com/download/3689344/Golmaal.3.Bluray.x264.720p.DTS-FictionBoy.mkv.002
    http://www.duckload.com/download/3689306/Golmaal.3.Bluray.x264.720p.DTS-FictionBoy.mkv.003
    http://www.duckload.com/download/3689317/Golmaal.3.Bluray.x264.720p.DTS-FictionBoy.mkv.004
    http://www.duckload.com/download/3689297/Golmaal.3.Bluray.x264.720p.DTS-FictionBoy.mkv.005
    Code:
    http://www.fileserve.com/file/etxmHE9/Golmaal.3.Bluray.x264.720p.DTS-FictionBoy.mkv.001
    http://www.fileserve.com/file/hyh45VX/Golmaal.3.Bluray.x264.720p.DTS-FictionBoy.mkv.002
    http://www.fileserve.com/file/wDumEsf/Golmaal.3.Bluray.x264.720p.DTS-FictionBoy.mkv.003
    http://www.fileserve.com/file/ngbbAsZ/Golmaal.3.Bluray.x264.720p.DTS-FictionBoy.mkv.004
    http://www.fileserve.com/file/n9gWsWG/Golmaal.3.Bluray.x264.720p.DTS-FictionBoy.mkv.005
    Last edited by Messi; 03-15-2011 at 12:33 AM.

 

 

Posting Permissions

  • You may not post new threads
  • You may not post replies
  • You may not post attachments
  • You may not edit your posts
  •