Results 1 to 1 of 1
  1. #1
    Hot Member www.desirulez.net
    Join Date
    Jan 2011
    Posts
    1,881

    T

    Default Golmaal 3 2010 Bluray 1080p x264 DTS - FictionBoy

    Follow us on Social Media







    Golmaal 3 2010 Bluray 1080p x264 DTS - FictionBoy



    Code:
    Source: BD50
    
    General
    
    Format                           : Matroska
    File size                        : 7.94 GiB
    Duration                         : 2h 20mn
    
    
    
    Video
    
    Format                           : AVC
    Format profile                   : [email protected]
    Format settings, ReFrames        : 4 frames
    Duration                         : 2h 20mn
    Bit rate                         : 6615 Kbps
    Width                            : 1 920 pixels
    Height                           : 864 pixels
    Display aspect ratio             : 2.22
    Frame rate                       : 24.000 fps
    Bits/(Pixel*Frame)               : 0.166
    Stream size                      : 6.31 GiB (79%)
    Writing library                  : x264 core 114 r1913 5fd3dce
    
    
    Audio
    
    Format                           : DTS
    Duration                         : 2h 25mn
    Bit rate mode                    : Constant
    Bit rate                         : 1510 Kbps
    Channel(s)                       : 6 channels
    Channel positions                : Front: L C R, Side: L R, LFE
    Stream size                      : 1.48 GiB (19%)
    Language                         : Hindi
    
    Subtitle
    
    Language                         : English





    Code:
    http://www.filesonic.com/file/353183751/Golmaal.3.Bluray.x264.1080p.DTS-FictionBoy.By.DXXO.part01.rar
    http://www.filesonic.com/file/353168941/Golmaal.3.Bluray.x264.1080p.DTS-FictionBoy.By.DXXO.part02.rar
    http://www.filesonic.com/file/353920331/Golmaal.3.Bluray.x264.1080p.DTS-FictionBoy.By.DXXO.part03.rar
    http://www.filesonic.com/file/353177691/Golmaal.3.Bluray.x264.1080p.DTS-FictionBoy.By.DXXO.part04.rar
    http://www.filesonic.com/file/353181621/Golmaal.3.Bluray.x264.1080p.DTS-FictionBoy.By.DXXO.part05.rar
    http://www.filesonic.com/file/353179471/Golmaal.3.Bluray.x264.1080p.DTS-FictionBoy.By.DXXO.part06.rar
    http://www.filesonic.com/file/353765941/Golmaal.3.Bluray.x264.1080p.DTS-FictionBoy.By.DXXO.part07.rar
    http://www.filesonic.com/file/353191751/Golmaal.3.Bluray.x264.1080p.DTS-FictionBoy.By.DXXO.part08.rar

    Code:
    http://www.fileserve.com/file/aBF2pHB/Golmaal.3.Bluray.x264.1080p.DTS-FictionBoy.By.DXXO.part01.rar
    http://www.fileserve.com/file/Ustqz3M/Golmaal.3.Bluray.x264.1080p.DTS-FictionBoy.By.DXXO.part02.rar
    http://www.fileserve.com/file/3fAjEz6/Golmaal.3.Bluray.x264.1080p.DTS-FictionBoy.By.DXXO.part03.rar
    http://www.fileserve.com/file/ZwSm8BV/Golmaal.3.Bluray.x264.1080p.DTS-FictionBoy.By.DXXO.part04.rar
    http://www.fileserve.com/file/F9ZudwP/Golmaal.3.Bluray.x264.1080p.DTS-FictionBoy.By.DXXO.part05.rar
    http://www.fileserve.com/file/7GhUPmr/Golmaal.3.Bluray.x264.1080p.DTS-FictionBoy.By.DXXO.part06.rar
    http://www.fileserve.com/file/6gMewrV/Golmaal.3.Bluray.x264.1080p.DTS-FictionBoy.By.DXXO.part07.rar
    http://www.fileserve.com/file/tgDmUG5/Golmaal.3.Bluray.x264.1080p.DTS-FictionBoy.By.DXXO.part08.rar

 

 

Posting Permissions

  • You may not post new threads
  • You may not post replies
  • You may not post attachments
  • You may not edit your posts
  •