Results 1 to 1 of 1
  1. #1

    Default Ghulam 1998 720p Bluray x264 [Team DS]

    Follow us on Social Media







    Media Information


    General

    Complete Name : Ghulam 1998 720p BluRay x264.mkv
    Format : Matroska
    File size : 2.19 GiB
    Duration : 2h 42mn
    Overall bit rate : 1 930 Kbps

    Video

    Format : AVC
    Format/Info : Advanced Video Codec
    Duration : 2h 42mn
    Bit rate : 1 667 Kbps
    Nominal bit rate : 1 705 Kbps
    Width : 1 280 pixels
    Height : 544 pixels
    Display aspect ratio : 2.35:1
    Frame rate : 24.000 fps
    Resolution : 24 bits
    Colorimetry : 4:2:0
    Scan type : Progressive
    Bits/(Pixel*Frame) : 0.100
    Stream size : 1.89 GiB (86%)

    Audio

    Format : AC-3
    Format/Info : Audio Coding 3
    Duration : 2h 42mn
    Bit rate mode : Constant
    Bit rate : 224 Kbps
    Channel(s) : 6 channels
    Channel positions : Front: L C R, Surround: L R, LFE
    Sampling rate : 48.0 KHz
    Stream size : 260 MiB (12%)
    Language : Hindi

    Text

    Format : UTF-8
    Codec ID : S_TEXT/UTF8
    Codec ID/Info : UTF-8 Plain Text
    Screen Shots

















    Download



    Code:
    http://www.filejungle.com/f/DmyNfF/GMH-M-B-09-Leader-Ghulam.part1.rar
    http://www.filejungle.com/f/tzcWw3/GMH-M-B-09-Leader-Ghulam.part1.rev
    http://www.filejungle.com/f/EmjJ8S/GMH-M-B-09-Leader-Ghulam.part2.rar
    http://www.filejungle.com/f/UPTUdn/GMH-M-B-09-Leader-Ghulam.part3.rar
    http://www.filejungle.com/f/KKzptu/GMH-M-B-09-Leader-Ghulam.part4.rar
    http://www.filejungle.com/f/Sk3dfA/GMH-M-B-09-Leader-Ghulam.part5.rar
    http://www.filejungle.com/f/fVFACC/GMH-M-B-09-Leader-Ghulam.part6.rar


    Code:
    http://www.fileserve.com/file/5yDcz2z/GMH-M-B-09-Leader-Ghulam.part5.rar
    http://www.fileserve.com/file/SYtXaTB/GMH-M-B-09-Leader-Ghulam.part4.rar
    http://www.fileserve.com/file/Guc75E3/GMH-M-B-09-Leader-Ghulam.part6.rar
    http://www.fileserve.com/file/XMuTRVK/GMH-M-B-09-Leader-Ghulam.part1.rar
    http://www.fileserve.com/file/k6WjHxg/GMH-M-B-09-Leader-Ghulam.part3.rar
    http://www.fileserve.com/file/EPvB6NX/GMH-M-B-09-Leader-Ghulam.part2.rar
    http://www.fileserve.com/file/4eQBa8V/GMH-M-B-09-Leader-Ghulam.part1.rev

    Password


    Leader

 

 

Posting Permissions

  • You may not post new threads
  • You may not post replies
  • You may not post attachments
  • You may not edit your posts
  •