Results 1 to 1 of 1
  1. #1

    Default Dostana 2008 720p Bluray DTS x264 [Team DS]

    Follow us on Social Media









    Media Information


    General

    Complete Name : Dostana 2008 720p Blu Ray DTS x264.mkv
    Format : Matroska
    File size : 4.37 GiB
    Duration : 2h 22mn
    Overall bit rate : 4 393 Kbps


    Video

    Format : AVC
    Format/Info : Advanced Video Codec
    Duration : 2h 22mn
    Bit rate : 3 551 Kbps
    Nominal bit rate : 3 636 Kbps
    Width : 1 280 pixels
    Height : 544 pixels
    Display aspect ratio : 2.35:1
    Frame rate : 24.000 fps
    Resolution : 24 bits
    Colorimetry : 4:2:0
    Scan type : Progressive
    Bits/(Pixel*Frame) : 0.213
    Stream size : 3.53 GiB (81%)
    Language : Hindi

    Audio

    Format : DTS
    Format/Info : Digital Theater Systems
    Duration : 2h 22mn
    Bit rate mode : Constant
    Bit rate : 755 Kbps
    Channel(s) : 6 channels
    Channel positions : Front: L C R, Surround: L R, LFE
    Sampling rate : 48.0 KHz
    Resolution : 24 bits
    Stream size : 768 MiB (17%)
    Language : Hindi

    Text

    Format : VobSub
    Codec ID : S_VOBSUB
    Codec ID/Info : The same subtitle format used on DVDs
    Language : English

    Screen Shots












    Download



    Code:
    http://www.filejungle.com/f/tXUYug/[email protected]@.part01.rar
    http://www.filejungle.com/f/dTCHBj/[email protected]@.part02.rar
    http://www.filejungle.com/f/74dQpF/[email protected]@.part03.rar
    http://www.filejungle.com/f/MPkH2w/[email protected]@.part1.rev


    Code:
    http://www.fileserve.com/file/yhYD64y/[email protected]@.part1.rev
    http://www.fileserve.com/file/QMDTucT/[email protected]@.part03.rar
    http://www.fileserve.com/file/qrPGvR7/[email protected]@.part02.rar
    http://www.fileserve.com/file/g7wAADv/[email protected]@.part01.rar

    Password


    Leader

 

 

Posting Permissions

  • You may not post new threads
  • You may not post replies
  • You may not post attachments
  • You may not edit your posts
  •