Results 1 to 1 of 1
  1. #1

    Thumbs up Dabangg 3D Side By Side LR BD RIP XVID MP3 Striker WBZ

    Follow us on Social Media









    Code:
    This is a 2D to 3D conversion using Side By Side Left/Right Technic.
    
    
    - PC & Mac
    Plays with Stereoscopic Player (Shareware)
    Nvidia Stereoscopic Player (free)
    ArcSoft TotalMedia
    PowerDVD 10 Ultra Mark II
    
    
    - TV
    Compatible with 3D TVs and 3D-Ready TVs that can play SBS (mostly all).
    (Click on 3D button on remote and Chose Side By Side Left / Right when inputing this file)
    
    
    General
    
    3D Specs : 2D to 3D with Side By Side Left-Right Images
    Format : AVI
    File size : 2.34 GB
    Duration : 2h 6mn
    Overall bit rate :2656 Kbps
    
    
    VIDEO
    ID : 0
    Format : MPEG-4 Visual
    Format profile : Advanced [email protected]
    Format settings, BVOP : 2
    Format settings, QPel : No
    Format settings, GMC : No warppoints
    Format settings, Matrix : Default (H.263)
    Muxing mode : Packed bitstream
    Codec ID : XVID
    Codec ID/Hint : XviD
    Duration : 2h 6mn
    Bit rate : 2 196 Kbps
    Width : 1 440 pixels
    Height : 304 pixels
    Display aspect ratio : 4.737
    Frame rate : 24.000 fps
    Color space : YUV
    Chroma subsampling : 4:2:0
    Bit depth : 8 bits
    Scan type : Progressive
    Compression mode : Lossy
    Bits/(Pixel*Frame) : 0.209
    Stream size : 1.93 GiB (83%)
    Writing library : XviD 1.1.2 (UTC 2006-11-01)
    
    AUDIO
    ID : 1
    Format : AC-3
    Format/Info : Audio Coding 3
    Mode extension : CM (complete main)
    Codec ID : 2000
    Duration : 2h 6mn
    Bit rate mode : Constant
    Bit rate : 448 Kbps
    Channel(s) : 6 channels
    Channel positions : Front: L C R, Side: L R, LFE
    Sampling rate : 48.0 KHz
    Bit depth : 16 bits
    Compression mode : Lossy
    Stream size : 404 MiB (17%)
    Alignment : Split accross interleaves
    Interleave, duration : 42 ms (1.00 video frame)
    Interleave, preload duration : 500 ms

    Fileserve:
    Code:
    http://www.fileserve.com/file/68Bfdhw/Dabangg.3D.Side.By.Side.LR.BD.RipXVID.WBZ.by.heavenly95.part1.rar
    http://www.fileserve.com/file/FNucMHM/Dabangg.3D.Side.By.Side.LR.BD.RipXVID.WBZ.by.heavenly95.part2.rar
    http://www.fileserve.com/file/vdRUQPe/Dabangg.3D.Side.By.Side.LR.BD.RipXVID.WBZ.by.heavenly95.part3.rar
    http://www.fileserve.com/file/x5aez6g/Dabangg.3D.Side.By.Side.LR.BD.RipXVID.WBZ.by.heavenly95.part4.rar
    http://www.fileserve.com/file/ET23fg4/Dabangg.3D.Side.By.Side.LR.BD.RipXVID.WBZ.by.heavenly95.part5.rar
    Filesonic:
    Code:
    http://www.filesonic.com/file/946153874/Dabangg.3D.Side.By.Side.LR.BD.RipXVID.WBZ.by.heavenly95.part1.rar
    http://www.filesonic.com/file/946153834/Dabangg.3D.Side.By.Side.LR.BD.RipXVID.WBZ.by.heavenly95.part2.rar
    http://www.filesonic.com/file/946149324/Dabangg.3D.Side.By.Side.LR.BD.RipXVID.WBZ.by.heavenly95.part3.rar
    http://www.filesonic.com/file/946149184/Dabangg.3D.Side.By.Side.LR.BD.RipXVID.WBZ.by.heavenly95.part4.rar
    http://www.filesonic.com/file/946139124/Dabangg.3D.Side.By.Side.LR.BD.RipXVID.WBZ.by.heavenly95.part5.rar
    Duckload:
    Code:
    http://www.duckload.com/download/5512329/Dabangg_3D_Side_By_Side_LR_BD_RIP_XVID_MP3_Striker_WBZ.avi
    Man is still the most extraordinary computer of all.




 

 

Posting Permissions

  • You may not post new threads
  • You may not post replies
  • You may not post attachments
  • You may not edit your posts
  •