Results 1 to 1 of 1
  1. #1
    Banned www.desirulez.net
    Join Date
    Apr 2011
    Posts
    100

    T

    Post CHAK DE INDIA 2007 3D LR 720P BDRIP X264 AC3 Striker WBZ

    Follow us on Social Media










    CHAK DE INDIA 2007 3D LR 720P BDRIP X264 AC3 Striker WBZ






    This is a 2D to 3D conversion using Side By Side Left/Right Technic.


    - PC & Mac
    Plays with Stereoscopic Player (Shareware)
    Nvidia Stereoscopic Player (free)
    ArcSoft TotalMedia
    PowerDVD 10 Ultra Mark II


    - TV
    Compatible with 3D TVs and 3D-Ready TVs that can play SBS (mostly all).
    (Click on 3D button on remote and Chose Side By Side Left / Right when inputing this file)



    General

    3D Specs : 2D to 3D with Side By Side Left-Right Images
    Format : MKV
    File size : 2.19 GiB
    Duration : 2h 28mn
    Overall bit rate : 2106 Kbps


    VIDEO
    ID : 1
    Format : AVC
    Format/Info : Advanced Video Codec
    Format profile : [email protected]
    Format settings, CABAC : Yes
    Format settings, ReFrames : 1 frame
    Codec ID : V_MPEG4/ISO/AVC
    Duration : 2h 28mn
    Bit rate : 1 652 Kbps
    Width : 2 560 pixels
    Height : 544 pixels
    Display aspect ratio : 4.706
    Frame rate : 24.000 fps
    Color space : YUV
    Chroma subsampling : 4:2:0
    Bit depth : 8 bits
    Scan type : Progressive
    Bits/(Pixel*Frame) : 0.049
    Stream size : 1.68 GiB (77%)
    Writing library : x264 core 114 r1924 08d04a4
    Encoding settings : cabac=1 / ref=1 / deblock=1:0:0 / analyse=0x1:0x111 / me=hex / subme=5 / psy=1 / psy_rd=0.00:0.00 / mixed_ref=0 / me_range=16 / chroma_me=1 / trellis=0 / 8x8dct=0 / cqm=0 / deadzone=21,11 / fast_pskip=1 / chroma_qp_offset=0 / threads=3 / sliced_threads=0 / nr=0 / decimate=1 / interlaced=0 / constrained_intra=0 / bframes=0 / weightp=2 / keyint=250 / keyint_min=24 / scenecut=40 / intra_refresh=0 / rc_lookahead=40 / rc=abr / mbtree=1 / bitrate=1652 / ratetol=1.0 / qcomp=0.60 / qpmin=10 / qpmax=51 / qpstep=4 / ip_ratio=1.40 / aq=1:1.00
    Language : English

    AUDIO
    ID : 2
    Format : AC-3
    Format/Info : Audio Coding 3
    Mode extension : CM (complete main)
    Codec ID : A_AC3
    Duration : 2h 28mn
    Bit rate mode : Constant
    Bit rate : 448 Kbps
    Channel(s) : 2 channels
    Channel positions : Front: L R
    Sampling rate : 48.0 KHz
    Bit depth : 16 bits
    Compression mode : Lossy
    Stream size : 477 MiB (21%)
    Title : Striker[WBZ]
    Language : Hindi



















    Code:
    http://www.fileserve.com/file/aEfYTjc

    Code:
    http://www.fileserve.com/file/tUbdFZn
    http://www.fileserve.com/file/r2QyYwH
    http://www.fileserve.com/file/XrYjx54
    http://www.fileserve.com/file/eEAPfxH
    http://www.fileserve.com/file/WNxnEW5



 

 

Posting Permissions

  • You may not post new threads
  • You may not post replies
  • You may not post attachments
  • You may not edit your posts
  •