Results 1 to 1 of 1
  1. #1
    dR Rockers www.desirulez.net
    Join Date
    Aug 2011
    Posts
    5,859

    T

    Default Bunty Aur Babli (2005) - 4GB - DVDRip - UpscaleD - [Rombur]

    Follow us on Social Media







    Bunty aur Babli (2005)

    Code:
        			 			
    
     				  Complete name : Bunty.aur.Babli.2005.DVD9.Upscale-Rombur.mkv
          Format : Matroska
          File size : 3.97 GiB
          Duration : 2h 43mn
          Overall bit rate : 3 471 Kbps
     Video 
          Format : AVC
          Format/Info : Advanced Video Codec
          Format profile : [email protected]
          Format settings, CABAC : Yes
          Format settings, ReFrames : 4 frames
          Muxing mode : Container [email protected]
          Codec ID : V_MPEG4/ISO/AVC
          Duration : 2h 43mn
          Bit rate : 2 954 Kbps
          Nominal bit rate : 3 000 Kbps
          Width : 1 024 pixels
          Height : 480 pixels
          Display aspect ratio : 2.2:1
          Frame rate mode : Variable
          Frame rate : 29.970 fps
          Resolution : 24 bits
          Colorimetry : 4:2:0
          Scan type : Progressive
          Bits/(Pixel*Frame) : 0.201
          Stream size : 3.37 GiB (85%)
          Writing library : x264 core 112
     Audio 
          Format : AC-3
          Format/Info : Audio Coding 3
          Codec ID : A_AC3
          Duration : 2h 43mn
          Bit rate mode : Constant
          Bit rate : 448 Kbps
          Channel(s) : 6 channels
          Channel positions : Front: L C R, Surround: L R, LFE
          Sampling rate : 48.0 KHz
          Stream size : 524 MiB (13%)
          Language : Hindi
       Text 
          Format : VobSub
          Codec ID : S_VOBSUB
          Codec ID/Info : The same subtitle format used on DVDs
          Language : English
















    SINGLE LINK

    Code:
    http://www.filesonic.com/file/4184264865/Bunty.aur.Babli.2005.DVD9.Upscale-Rombur.mkv
    Code:
    http://www.filejungle.com/f/V2qrHF/Bunty.aur.Babli.2005.DVD9.Upscale-Rombur.mkv

    700MB LINKS


    Code:
    http://www.filesonic.com/file/4184255215/Bunty.aur.Babli.2005.DVD9.Upscale-Rombur.mkv.001
    http://www.filesonic.com/file/4184255335/Bunty.aur.Babli.2005.DVD9.Upscale-Rombur.mkv.002
    http://www.filesonic.com/file/4184255325/Bunty.aur.Babli.2005.DVD9.Upscale-Rombur.mkv.003
    http://www.filesonic.com/file/4184255105/Bunty.aur.Babli.2005.DVD9.Upscale-Rombur.mkv.004
    http://www.filesonic.com/file/4184255165/Bunty.aur.Babli.2005.DVD9.Upscale-Rombur.mkv.005
    http://www.filesonic.com/file/4184266345/Bunty.aur.Babli.2005.DVD9.Upscale-Rombur.mkv.006
    
    
    http://www.filejungle.com/f/6bqXHZ/Bunty.aur.Babli.2005.DVD9.Upscale-Rombur.mkv.001
    http://www.filejungle.com/f/yAdzvP/Bunty.aur.Babli.2005.DVD9.Upscale-Rombur.mkv.002
    http://www.filejungle.com/f/cXBUX9/Bunty.aur.Babli.2005.DVD9.Upscale-Rombur.mkv.003
    http://www.filejungle.com/f/4R9NzY/Bunty.aur.Babli.2005.DVD9.Upscale-Rombur.mkv.004
    http://www.filejungle.com/f/bmeXNR/Bunty.aur.Babli.2005.DVD9.Upscale-Rombur.mkv.005
    http://www.filejungle.com/f/hmxdy9/Bunty.aur.Babli.2005.DVD9.Upscale-Rombur.mkv.006
    
    
    http://www.fileserve.com/file/m6HCMra/Bunty.aur.Babli.2005.DVD9.Upscale-Rombur.mkv.001
    http://www.fileserve.com/file/c4W6nJD/Bunty.aur.Babli.2005.DVD9.Upscale-Rombur.mkv.002
    http://www.fileserve.com/file/RnrAgM7/Bunty.aur.Babli.2005.DVD9.Upscale-Rombur.mkv.003
    http://www.fileserve.com/file/QF58Y7p/Bunty.aur.Babli.2005.DVD9.Upscale-Rombur.mkv.004
    http://www.fileserve.com/file/jd6gAWh/Bunty.aur.Babli.2005.DVD9.Upscale-Rombur.mkv.005
    http://www.fileserve.com/file/VstgAmw/Bunty.aur.Babli.2005.DVD9.Upscale-Rombur.mkv.006

 

 

Posting Permissions

  • You may not post new threads
  • You may not post replies
  • You may not post attachments
  • You may not edit your posts
  •