Results 1 to 1 of 1
  1. #1
    Hot Member www.desirulez.net
    Join Date
    Sep 2009
    Posts
    1,215

    T

    Thumbs up Break Ke Baad - 2010 - 720p DVDRip X264 Untouch AC3 5.1 Audio ESubs {Team AF}

    Follow us on Social Media










    General
    Complete name : C:\Users\SK1\Desktop\Break Ke Baad - 2010 - 720p DVDRip X264 Untouch AC3 5.1 Audio ESubs {Team DUS}\Break Ke Baad - 2010 - 720p DVDRip X264 Untouch AC3 5.1 Audio ESubs {Team DUS}.mkv
    Format : Matroska
    File size : 2.05 GiB
    Duration : 1h 52mn
    Overall bit rate : 2 603 Kbps
    Encoded date : UTC 2011-01-11 16:40:15
    Writing application : mkvmerge v4.0.0 ('The Stars were mine') built on Jun 6 2010 16:18:42
    Writing library : libebml v1.0.0 + libmatroska v1.0.0

    Video
    ID : 1
    Format : AVC
    Format/Info : Advanced Video Codec
    Format profile : [email protected]
    Format settings, CABAC : Yes
    Format settings, ReFrames : 4 frames
    Codec ID : V_MPEG4/ISO/AVC
    Duration : 1h 52mn
    Bit rate : 2 153 Kbps
    Width : 1 288 pixels
    Height : 544 pixels
    Display aspect ratio : 2.35:1
    Frame rate : 23.976 fps
    Color space : YUV
    Chroma subsampling : 4:2:0
    Bit depth : 8 bits
    Scan type : Progressive
    Bits/(Pixel*Frame) : 0.128
    Stream size : 1.66 GiB (81%)
    Writing library : x264 core 98 r1649 c54c47d
    Language : English

    Audio
    ID : 2
    Format : AC-3
    Format/Info : Audio Coding 3
    Mode extension : CM (complete main)
    Codec ID : A_AC3
    Duration : 1h 52mn
    Bit rate mode : Constant
    Bit rate : 448 Kbps
    Channel(s) : 6 channels
    Channel positions : Front: L C R, Side: L R, LFE
    Sampling rate : 48.0 KHz
    Bit depth : 16 bits
    Compression mode : Lossy
    Stream size : 361 MiB (17%)
    Language : Hindi











    Code:
    http://www.fileserve.com/file/A6dgH6X
    http://www.fileserve.com/file/3b2Tzsc
    http://www.fileserve.com/file/zFeW5kS

 

 

Posting Permissions

  • You may not post new threads
  • You may not post replies
  • You may not post attachments
  • You may not edit your posts
  •