Results 1 to 1 of 1
  1. #1

    Default Body Guard 2011 Bluray 720p x264 .:: Th3 KinG :: GMH ::.

    Follow us on Social Media







    Media Information

    General

    Complete Name : Bodyguard 2011 BluRay 720p x264 DTS.mkv
    Format : Matroska
    File size : 4.37 GiB
    Duration : 2h 10mn
    Overall bit rate : 4 783 Kbps

    Video

    Format : AVC
    Duration : 2h 10mn
    Bit rate : 3 178 Kbps
    Nominal bit rate : 3 274 Kbps
    Width : 1 280 pixels
    Height : 544 pixels
    Display aspect ratio : 2.35:1
    Frame rate : 23.976 fps
    Resolution : 24 bits
    Colorimetry : 4:2:0
    Scan type : Progressive
    Bits/(Pixel*Frame) : 0.190
    Stream size : 2.90 GiB (66%)
    Language : Hindi

    Audio

    Format : DTS
    Duration : 2h 10mn
    Bit rate mode : Constant
    Bit rate : 1 510 Kbps
    Channel(s) : 6 channels
    Channel positions : Front: L C R, Surround: L R, LFE
    Sampling rate : 48.0 KHz
    Resolution : 24 bits
    Video delay : 1s 418ms
    Stream size : 1.38 GiB (32%)
    Language : Hindi
    Screen Shots

















    Download Links



    Code:
    http://www.filejungle.com/f/fU2gs3/[email protected]
    http://www.filejungle.com/f/dt23VY/[email protected]
    http://www.filejungle.com/f/xnXjmj/[email protected]
    http://www.filejungle.com/f/XpFYbR/[email protected]
    http://www.filejungle.com/f/Nf6gud/[email protected]
    http://www.filejungle.com/f/T8EkT4/[email protected]
    http://www.filejungle.com/f/YexCez/[email protected]
    http://www.filejungle.com/f/jGzZgV/[email protected]
    http://www.filejungle.com/f/UcnsDG/[email protected]
    http://www.filejungle.com/f/fkFran/[email protected]
    http://www.filejungle.com/f/DJKWyc/[email protected]



    Leader

 

 

Posting Permissions

  • You may not post new threads
  • You may not post replies
  • You may not post attachments
  • You may not edit your posts
  •