Results 1 to 1 of 1
  1. #1
    dR Rockers www.desirulez.net
    Join Date
    Aug 2011
    Posts
    5,859

    T

    Default Black [2005] - 2.18GB - DVDRip - Upscaled - x264 - AC36 - Dus

    Follow us on Social Media











    ------------------------------------------------------------------
    Black [2005] DVDRip Upscaled x264 AC3 - 6 @ Dus
    ------------------------------------------------------------------

    HTML Code:
    General
    Unique ID : 221928463963734594867135039014122575975 (0xA6F5DE0FA0BA82A9AACE4EFD20845867)
    Complete name : D:\Ripped\Black [2005] DVDRip Upscaled x264 AC3 - 6 @ Dus\Black [2005] DVDRip Upscaled x264 AC3 - 6 @ Dus.mkv
    Format : Matroska
    Format version : Version 2
    File size : 2.18 GiB
    Duration : 1h 59mn
    Overall bit rate mode : Variable
    Overall bit rate : 2 615 Kbps
    Encoded date : UTC 2011-11-02 07:50:12
    Writing application : mkvmerge v4.9.1 ('Ich will') built on Jul 11 2011 23:53:15
    Writing library : libebml v1.2.1 + libmatroska v1.1.1

    Video
    ID : 1
    Format : AVC
    Format/Info : Advanced Video Codec
    Format profile : [email protected]
    Format settings, CABAC : Yes
    Format settings, ReFrames : 3 frames
    Codec ID : V_MPEG4/ISO/AVC
    Duration : 1h 59mn
    Bit rate mode : Variable
    Bit rate : 2 421 Kbps
    Maximum bit rate : 40.0 Mbps
    Width : 1 280 pixels
    Height : 544 pixels
    Display aspect ratio : 2.35:1
    Frame rate : 29.970 fps
    Color space : YUV
    Chroma subsampling : 4:2:0
    Bit depth : 8 bits
    Scan type : Progressive
    Bits/(Pixel*Frame) : 0.116
    Stream size : 1.98 GiB (91%)
    Writing library : x264 core 116 r2074 2641b9e
    Encoding settings : cabac=1 / ref=3 / deblock=1:-1:-1 / analyse=0x3:0x113 / me=hex / subme=7 / psy=1 / psy_rd=1.00:0.15 / mixed_ref=1 / me_range=16 / chroma_me=1 / trellis=1 / 8x8dct=1 / cqm=0 / deadzone=21,11 / fast_pskip=1 / chroma_qp_offset=-3 / threads=3 / sliced_threads=0 / slices=4 / nr=0 / decimate=1 / interlaced=0 / bluray_compat=1 / constrained_intra=0 / bframes=3 / b_pyramid=1 / b_adapt=1 / b_bias=0 / direct=1 / weightb=1 / open_gop=1 / weightp=1 / keyint=30 / keyint_min=3 / scenecut=40 / intra_refresh=0 / rc_lookahead=30 / rc=2pass / mbtree=1 / bitrate=2421 / ratetol=1.0 / qcomp=0.60 / qpmin=10 / qpmax=51 / qpstep=4 / cplxblur=20.0 / qblur=0.5 / vbv_maxrate=40000 / vbv_bufsize=30000 / nal_hrd=vbr / ip_ratio=1.40 / aq=1:1.00
    Language : English

    Audio
    ID : 2
    Format : AC-3
    Format/Info : Audio Coding 3
    Mode extension : CM (complete main)
    Codec ID : A_AC3
    Duration : 1h 59mn
    Bit rate mode : Constant
    Bit rate : 192 Kbps
    Channel(s) : 6 channels
    Channel positions : Front: L C R, Side: L R, LFE
    Sampling rate : 48.0 KHz
    Bit depth : 16 bits
    Compression mode : Lossy
    Stream size : 164 MiB (7%)












    SINGLE LINK

    Code:
    http://www.filesonic.com/file/4144225045/Black [2005] DVDRip Upscaled x264 AC3 - 6 @ Dus.mkv
    Code:
    http://www.filejungle.com/f/DBNBfg/Black [2005] DVDRip Upscaled x264 AC3 - 6 @ Dus.mkv

    450MB LINKS


    Code:
    http://www.filesonic.com/file/4144219155/Black [2005] DVDRip Upscaled x264 AC3 - 6 @ Dus.mkv.001
    http://www.filesonic.com/file/4143761185/Black [2005] DVDRip Upscaled x264 AC3 - 6 @ Dus.mkv.002
    http://www.filesonic.com/file/4144219085/Black [2005] DVDRip Upscaled x264 AC3 - 6 @ Dus.mkv.003
    http://www.filesonic.com/file/4144219025/Black [2005] DVDRip Upscaled x264 AC3 - 6 @ Dus.mkv.004
    http://www.filesonic.com/file/4143761165/Black [2005] DVDRip Upscaled x264 AC3 - 6 @ Dus.mkv.005
    
    
    http://www.fileserve.com/file/sGNQGhm/Black [2005] DVDRip Upscaled x264 AC3 - 6 @ Dus.mkv.001
    http://www.fileserve.com/file/aGVaRm7/Black [2005] DVDRip Upscaled x264 AC3 - 6 @ Dus.mkv.002
    http://www.fileserve.com/file/BCQxzzd/Black [2005] DVDRip Upscaled x264 AC3 - 6 @ Dus.mkv.003
    http://www.fileserve.com/file/3YGuUZw/Black [2005] DVDRip Upscaled x264 AC3 - 6 @ Dus.mkv.004
    http://www.fileserve.com/file/tnXUtJP/Black [2005] DVDRip Upscaled x264 AC3 - 6 @ Dus.mkv.005
    
    
    http://www.filejungle.com/f/AW5buH/Black [2005] DVDRip Upscaled x264 AC3 - 6 @ Dus.mkv.001
    http://www.filejungle.com/f/e5RwjY/Black [2005] DVDRip Upscaled x264 AC3 - 6 @ Dus.mkv.002
    http://www.filejungle.com/f/yZNZfz/Black [2005] DVDRip Upscaled x264 AC3 - 6 @ Dus.mkv.003
    http://www.filejungle.com/f/rEEG8a/Black [2005] DVDRip Upscaled x264 AC3 - 6 @ Dus.mkv.004
    http://www.filejungle.com/f/vD33zk/Black [2005] DVDRip Upscaled x264 AC3 - 6 @ Dus.mkv.005

 

 

Posting Permissions

  • You may not post new threads
  • You may not post replies
  • You may not post attachments
  • You may not edit your posts
  •