Results 1 to 1 of 1
  1. #1

    Thumbs up Vengaboys - Greatest Hits The Videos (2010)

    Follow us on Social Media







    Vengaboys - Greatest Hits The Videos (2010)[DVD5]



    INFO :
    Code:
    Format                           : MPEG-PS
    File size                        : 4 080 MiB
    Overall bit rate                 : 7 495 Kbps
    Writing library                  : Created by Nero
    
    Video
    ID                               : 224 (0xE0)
    Format                           : MPEG Video
    Format version                   : Version 2
    Format profile                   : [email protected]
    Format settings, BVOP            : Yes
    Format settings, Matrix          : Default
    Format settings, GOP             : M=3, N=15
    Bit rate mode                    : Variable
    Bit rate                         : 7 154 Kbps
    Nominal bit rate                 : 9 641 Kbps
    Width                            : 720 pixels
    Height                           : 480 pixels
    Display aspect ratio             : 4:3
    Frame rate                       : 29.970 fps
    Standard                         : NTSC
    Color space                      : YUV
    Chroma subsampling               : 4:2:0
    Bit depth                        : 8 bits
    Scan type                        : Progressive
    Scan order                       : Bottom Field First
    Compression mode                 : Lossy
    Bits/(Pixel*Frame)               : 0.691
    Stream size                      : 201 MiB (95%)
    Writing library                  : Created by Nero
    
    Audio
    ID                               : 128 (0x80)
    Format                           : AC-3
    Format/Info                      : Audio Coding 3
    Mode extension                   : CM (complete main)
    Bit rate mode                    : Constant
    Bit rate                         : 192 Kbps
    Channel(s)                       : 2 channels
    Channel positions                : Front: L R
    Sampling rate                    : 48.0 KHz
    Bit depth                        : 16 bits
    Compression mode                 : Lossy
    Delay relative to video          : -33ms
    Stream size                      : 5.38 MiB (3%)
    
    Recovery : +5%
    Cover : No
    Compression method : Best
    
    Tracklist :
    01.- Vengaboys-Parada De Tettas
    02.- Vengaboys-To Brazil
    03.- Vengaboys-Up And Down
    04.- Vengaboys-We Like To Party
    05.- Vengaboys-Boom Boom Boom Boom
    06.- Vengaboys-We're Going To Ibiza
    07.- Vengaboys-Kiss (When The Sun Don't Shine)
    08.- Vengaboys-Shalala Lala
    09.- Vengaboys-Uncle John From Jamaica
    10.- Vengaboys-Megamix
    11.- Vengaboys-Cheekah Bow Bow
    12.- Vengaboys-Forevers As One
    13.- Vengaboys-Rocket To Uranus
    14.- Vengaboys-Up And Down Extended Mix
    15.- Vengaboys-Kiss (When The Sun Don't Shine) (Hitradio XXL Club Edit)
    16.- Vengaboys-Live In India
    17.- Vengaboys feat. Joost Van Bellen-We like to Party (Live in Valtifest)
    18.- Vengaboys-We're Going to Ibiza (Live in Valtifest)
    19.- Vengaboys-We Like To Party & Boom Boom Boom Boom feat. Aux Raus (Live in World Aids Day Benefit in Paradiso Amsterdam)
    20.- Vengaboys-Rocket To Uranus (Live VTM)
    
    ..::UNOFFICIAL VERSION::..
    [__::FOR FAN::__]
    DOWNLOAD : fileserve/hellshare (4x957MB + 1x399MB)
    ( DLC with JDownloader )

    Code:
    http://www.fileserve.com/file/Kezk256
    >>LINKS ARE INTERCHANGEABLE<<
    nO pASS
    ...YOU CAN SHARE MY UPLOADS...

 

 

Posting Permissions

  • You may not post new threads
  • You may not post replies
  • You may not post attachments
  • You may not edit your posts
  •