Results 1 to 1 of 1
  1. #1

    Thumbs up VA - JimTV VideoYearMix (2010)

    Follow us on Social Media







    JimTV Hitmix (2010)



    INFO :
    Code:
    Format                           : Matroska
    File size                        : 745 MiB
    Duration                         : 52mn 48s
    Overall bit rate                 : 1 973 Kbps
    Encoded date                     : UTC 2010-12-26 16:20:34
    Writing application              : mkvmerge v4.3.0 ('Escape from the Island') built on Sep  5 2010 10:30:51
    Writing library                  : libebml v1.0.0 + libmatroska v1.0.0
    
    Video
    ID                               : 1
    Format                           : AVC
    Format/Info                      : Advanced Video Codec
    Format profile                   : [email protected]
    Format settings, CABAC           : Yes
    Format settings, ReFrames        : 5 frames
    Muxing mode                      : Header stripping
    Codec ID                         : V_MPEG4/ISO/AVC
    Duration                         : 52mn 48s
    Bit rate                         : 1 812 Kbps
    Width                            : 704 pixels
    Height                           : 560 pixels
    Display aspect ratio             : 16:9
    Frame rate                       : 25.000 fps
    Color space                      : YUV
    Chroma subsampling               : 4:2:0
    Bit depth                        : 8 bits
    Scan type                        : Progressive
    Bits/(Pixel*Frame)               : 0.184
    Stream size                      : 670 MiB (90%)
    Writing library                  : x264 core 112 r1834 a51816a
    Encoding settings                : cabac=1 / ref=5 / deblock=1:0:0 / analyse=0x1:0x111 / me=umh / subme=9 / psy=1 / psy_rd=1.00:0.00 / mixed_ref=1 / me_range=16 / chroma_me=1 / trellis=1 / 8x8dct=0 / cqm=0 / deadzone=21,11 / fast_pskip=0 / chroma_qp_offset=-2 / threads=6 / sliced_threads=0 / nr=0 / decimate=1 / interlaced=0 / constrained_intra=0 / bframes=5 / b_pyramid=2 / b_adapt=1 / b_bias=0 / direct=1 / weightb=1 / open_gop=0 / weightp=2 / keyint=250 / keyint_min=25 / scenecut=40 / intra_refresh=0 / rc_lookahead=40 / rc=2pass / mbtree=1 / bitrate=1812 / ratetol=1.0 / qcomp=0.60 / qpmin=0 / qpmax=51 / qpstep=4 / cplxblur=20.0 / qblur=0.5 / ip_ratio=1.40 / aq=1:1.00
    Language                         : English
    
    Audio
    ID                               : 2
    Format                           : MPEG Audio
    Format version                   : Version 1
    Format profile                   : Layer 2
    Muxing mode                      : Header stripping
    Codec ID                         : A_MPEG/L2
    Codec ID/Hint                    : MP2
    Duration                         : 52mn 48s
    Bit rate mode                    : Constant
    Bit rate                         : 160 Kbps
    Channel(s)                       : 2 channels
    Sampling rate                    : 48.0 KHz
    Compression mode                 : Lossy
    Delay relative to video          : 11ms
    Stream size                      : 60.4 MiB (8%)
    
    Recovery : +5%
    Cover : No
    Compression method : Best
    
    #SORRY NO TRACKLIST#
    DOWNLOAD :
    Code:
    http://www.fileserve.com/file/rw4vEqh
    OR
    http://download.cz.hellshare.com/jim10-rar/2162267/
    nO pASS
    ...YOU CAN SHARE MY UPLOADS...

 

 

Posting Permissions

  • You may not post new threads
  • You may not post replies
  • You may not post attachments
  • You may not edit your posts
  •