Results 1 to 3 of 3
  1. #1

    Default VA - Ballads & Love Songs Vol. 1, 2, 3 (2009)

    Follow us on Social Media







    Ballads & Love Songs Vol. 1 (2009)[DVD5]



    INFO :
    Code:
    Format                           : MPEG-PS
    File size                        : 4 290 MiB
    Duration                         : 80mn 
    Overall bit rate                 : 8 029 Kbps
    Writing library                  : (c) 1998-2007 Womble Multimedia, Inc. / MPEG Video Wizard (12/2007) / Dec 22 2007
    
    Video
    ID                               : 224 (0xE0)
    Format                           : MPEG Video
    Format version                   : Version 2
    Format profile                   : [email protected]
    Format settings, BVOP            : Yes
    Format settings, Matrix          : Default
    Format_Settings_GOP              : M=3, N=13
    Bit rate mode                    : Variable
    Bit rate                         : 6 333 Kbps
    Nominal bit rate                 : 9 800 Kbps
    Width                            : 720 pixels
    Height                           : 480 pixels
    Display aspect ratio             : 4:3
    Frame rate                       : 29.970 fps
    Standard                         : NTSC
    Resolution                       : 8 bits
    Colorimetry                      : 4:2:0
    Scan type                        : Interlaced
    Scan order                       : Top Field First
    Bits/(Pixel*Frame)               : 0.611
    Stream size                      : 808 MiB (79%)
    Writing library                  : (c) 1998-2007 Womble Multimedia, Inc. / MPEG Video Wizard (12/2007) / Dec 22 2007
    
    Audio
    ID                               : 160 (0xA0)
    Format                           : PCM
    Format settings, Endianness      : Big
    Format settings, Sign            : Signed
    Muxing mode                      : DVD-Video
    Bit rate mode                    : Constant
    Bit rate                         : 1 536 Kbps
    Channel(s)                       : 2 channels
    Channel positions                : Front: L R
    Sampling rate                    : 48.0 KHz
    Resolution                       : 16 bits
    Stream size                      : 196 MiB (19%)
    
    Recovery : +5%
    Cover : Yes
    Compression method : Best
    
    TRACKLIST :
    1 - Enigma - Sadeness 
    2 - Shania Twain - You´re Still The One 
    3 - Tears For Fears & Oleta Adams - Woman In Chains 
    4 - Martika - Toy Soldiers 
    5 - Elton John - Sacrifice 
    6 - The Cars - Drive 
    7 - Annie Lennox - No More I Love You's 
    8 - TOTO - I'll Be Over You 
    9 - Madonna - Take A Bow 
    10 - Backstreet Boys - Quit Playing Games (With My Heart) 
    11 - Avril Lavigne - Knockin' On Heaven's Door 
    12 - Bon Jovi – Always
    13 - Cyndi Lauper - True Colors
    14 - Scorpions - Send Me An Angel 
    15 - Starship - Sara 
    16 - John Waite - Missing You 
    17 - Europe - Carrie 
    18 - Celine Dion - My Heart Will Go On
    DOWNLOAD :
    Code:
    http://www.fileserve.com/file/hsYXfzc
    http://www.fileserve.com/file/ysc8buY
    http://www.fileserve.com/file/FnJCHmw
    http://www.fileserve.com/file/FAAf6M5
    http://www.fileserve.com/file/QZ473TW
    OR
    http://download.cz.hellshare.com/dvj/love1-part1.rar/1856951
    http://download.cz.hellshare.com/dvj/love1-part2.rar/1857250
    http://download.cz.hellshare.com/dvj/love1-part3.rar/1859934
    http://download.cz.hellshare.com/dvj/love1-part4.rar/1862067
    http://download.cz.hellshare.com/dvj/love1-part5.rar/1859060
    >>LINKS ARE INTERCHANGEABLE<<
    nO pASS
    ...YOU CAN SHARE MY UPLOADS...

  2. #2

    Default

    Ballads & Love Songs Vol. 2 (2009)[DVD5]



    INFO :
    Code:
    Format                           : MPEG-PS
    File size                        : 4 330 MiB
    Duration                         : 78mn 
    Overall bit rate                 : 8 198 Kbps
    Writing library                  : (c) 1998-2007 Womble Multimedia, Inc. / MPEG Video Wizard (12/2007) / Dec 22 2007
    
    Video
    ID                               : 224 (0xE0)
    Format                           : MPEG Video
    Format version                   : Version 2
    Format profile                   : [email protected]
    Format settings, BVOP            : Yes
    Format settings, Matrix          : Default
    Format settings, GOP             : M=3, N=13
    Bit rate mode                    : Variable
    Bit rate                         : 6 499 Kbps
    Nominal bit rate                 : 9 800 Kbps
    Width                            : 720 pixels
    Height                           : 480 pixels
    Display aspect ratio             : 4:3
    Frame rate                       : 29.970 fps
    Standard                         : NTSC
    Color space                      : YUV
    Chroma subsampling               : 4:2:0
    Bit depth                        : 8 bits
    Scan type                        : Interlaced
    Scan order                       : Top Field First
    Compression mode                 : Lossy
    Bits/(Pixel*Frame)               : 0.627
    Stream size                      : 812 MiB (79%)
    Writing library                  : (c) 1998-2007 Womble Multimedia, Inc. / MPEG Video Wizard (12/2007) / Dec 22 2007
    
    Audio
    ID                               : 160 (0xA0)
    Format                           : PCM
    Format settings, Endianness      : Big
    Format settings, Sign            : Signed
    Muxing mode                      : DVD-Video
    Bit rate mode                    : Constant
    Bit rate                         : 1 536 Kbps
    Channel(s)                       : 2 channels
    Channel positions                : Front: L R
    Sampling rate                    : 48.0 KHz
    Bit depth                        : 16 bits
    Stream size                      : 192 MiB (19%)
    
    
    Recovery : +5%
    Cover : Yes
    Compression method : Best
    
    TRACKLIST :
    1.-Emigma - Return To Innocence 
    2.-Bill Medley & Jennifer Warnes - The Time Of My Life 
    3.-Scorpions - Still Loving You 
    4.-Shania Twain - From This Moment On 
    5.-Aerosmith - Angel 
    6.-Bryan Adams - Heaven 
    7.-Cyndi Lauper - Time After Time 
    8.-Chicago - Hard To Say I M Sorry 
    9.-Crowded House - Don't Dream It's Over 
    10.-Avril Lavigne - I'm With You 
    11.-The Human League - Human 
    12.-Gloria Estefan - Anything For You 
    13.-Bonnie Tyler - Total Eclipse Of The Heart 
    14.-Backstreet Boys - I'll Never Break Your Heart 
    15.-Wet Wet Wet - Love Is All Around 
    16.-Kenny Thomas - Tender Love 
    17.-Celine Dion - Because You Loved Me (Live) 
    
    BONUS: Bryan Adams, Rod Steward & Sting - All For Love
    DOWNLOAD :
    Code:
    http://www.fileserve.com/file/a7S9eq5
    http://www.fileserve.com/file/uafaQ88
    http://www.fileserve.com/file/3KUkVF8
    http://www.fileserve.com/file/sMdQsTU
    http://www.fileserve.com/file/KgxWdCp
    OR
    http://download.cz.hellshare.com/love2-part1.rar/1941058/
    http://download.cz.hellshare.com/love2-part2.rar/1942461/
    http://download.cz.hellshare.com/love2-part3.rar/1964114/
    http://download.cz.hellshare.com/love2-part4.rar/1965956/
    http://download.cz.hellshare.com/love2-part5.rar/1968065/
    >>LINKS ARE INTERCHANGEABLE<<
    nO pASS
    ...YOU CAN SHARE MY UPLOADS...

  3. #3

    Default

    Ballads & Love Songs Vol. 3 (2009)[DVD5]



    INFO :
    Code:
    Format                           : MPEG-PS
    File size                        : 4 320 MiB
    Duration                         : 73 min.
    Overall bit rate                 : 8 960 Kbps
    Writing library                  : (c) 1998-2007 Womble Multimedia, Inc. / MPEG Video Wizard (12/2007) / Mar 31 2008
    
    Video
    ID                               : 224 (0xE0)
    Format                           : MPEG Video
    Format version                   : Version 2
    Format profile                   : [email protected]
    Format settings, BVOP            : Yes
    Format settings, Matrix          : Default
    Bit rate mode                    : Variable
    Bit rate                         : 7 245 Kbps
    Nominal bit rate                 : 9 800 Kbps
    Width                            : 720 pixels
    Height                           : 480 pixels
    Display aspect ratio             : 4:3
    Frame rate                       : 29.970 fps
    Standard                         : NTSC
    Color space                      : YUV
    Chroma subsampling               : 4:2:0
    Bit depth                        : 8 bits
    Scan type                        : Progressive
    Compression mode                 : Lossy
    Bits/(Pixel*Frame)               : 0.700
    Stream size                      : 828 MiB (81%)
    Writing library                  : (c) 1998-2007 Womble Multimedia, Inc. / MPEG Video Wizard (12/2007) / Mar 31 2008
    
    Audio
    ID                               : 160 (0xA0)
    Format                           : PCM
    Format settings, Endianness      : Big
    Format settings, Sign            : Signed
    Muxing mode                      : DVD-Video
    Bit rate mode                    : Constant
    Bit rate                         : 1 536 Kbps
    Channel(s)                       : 2 channels
    Channel positions                : Front: L R
    Sampling rate                    : 48.0 KHz
    Bit depth                        : 16 bits
    Stream size                      : 176 MiB (17%)
    
    
    Recovery : +5%
    Cover : Yes
    Compression method : Best
    
    TRACKLIST :
    1.-Mr. Mister - Broken Wings.
    2.-Police - Every Breath You Take.
    3.-Status Quo - In The Army Now.
    4.-Candy Dulfer Feat. Dave Stewar - Lily Was Here.
    5.-Extreme - More Than Words.
    6.-Metallica - Nothing Else Matters.
    7.-U2 - With Or Without You.
    8.-Billy Idol - Sweet Sixtee.
    9.-ZZ Top - Rough Boy.
    10.-Scorpions - Holiday.
    11.-Martika - Love Thy Will Be Done.
    12.-Lionel Richie - Say You, Say Me.
    13.-Prince - Purple Rain.
    14.-Whitesnake - Is This Love.
    15.-Heart - Alone.
    16.-Bon Jovi - Blaze of Glory.
    DOWNLOAD :
    Code:
    http://www.fileserve.com/file/4paGrDp
    http://www.fileserve.com/file/zSm5UWH
    http://www.fileserve.com/file/9ywp58A
    http://www.fileserve.com/file/vHbJDsZ
    http://www.fileserve.com/file/BTDRNa5
    OR
    http://download.cz.hellshare.com/love3-part1-rar/2072366/
    http://download.cz.hellshare.com/love3-part2-rar/2094359/
    http://download.cz.hellshare.com/love3-part3-rar/2069873/
    http://download.cz.hellshare.com/love3-part4-rar/2070223/
    http://download.cz.hellshare.com/love3-part5-rar/2095735/
    >>LINKS ARE INTERCHANGEABLE<<
    nO pASS
    ...YOU CAN SHARE MY UPLOADS...

 

 

Posting Permissions

  • You may not post new threads
  • You may not post replies
  • You may not post attachments
  • You may not edit your posts
  •